<?xml version="1.0" standalone="no"?>
<!DOCTYPE svg PUBLIC "-//W3C//DTD SVG 1.1//EN" "http://www.w3.org/Graphics/SVG/1.1/DTD/svg11.dtd" >
<svg>
<metadata>
Created by FontForge 20090622 at Thu Jan 10 18:58:29 2019
 By deploy user
Copyright (c) 2014 by Hannes von Doehren, Livius Dietzel. All rights reserved.
</metadata>
<defs>
<font id="BrixSansRegular" horiz-adv-x="560" >
  <font-face 
    font-family="Brix Sans Regular"
    font-weight="400"
    font-stretch="normal"
    units-per-em="1000"
    panose-1="2 0 0 0 0 0 0 0 0 0"
    ascent="720"
    descent="-280"
    x-height="456"
    cap-height="676"
    bbox="-150 -226 1084 981"
    underline-thickness="50"
    underline-position="-50"
    unicode-range="U+0020-U+FB02"
  />
<missing-glyph horiz-adv-x="513" 
d="M50 0v656h413v-656h-413zM88 39h337v578h-337v-578z" />
    <glyph glyph-name="fi" unicode="fi" horiz-adv-x="563" 
d="M416 0v386h-236v-386h-80v386h-78v60l78 10v73q0 161 146 161h52v-70h-49q-38 0 -53.5 -23t-15.5 -68v-73h316v-456h-80zM455 567q-56 0 -56 54q0 28 15.5 42t40.5 14q24 0 40 -14t16 -42q0 -27 -16 -40.5t-40 -13.5z" />
    <glyph glyph-name="fl" unicode="fl" horiz-adv-x="564" 
d="M298 690v-70h-49q-38 0 -53.5 -23t-15.5 -68v-73h133v-70h-133v-386h-80v386h-78v60l78 10v73q0 161 146 161h52zM394 690h80v-561q0 -30 10 -43.5t36 -13.5h25v-74h-47q-57 0 -80.5 31t-23.5 91v570z" />
    <glyph glyph-name="f_f" unicode="ff" horiz-adv-x="630" 
d="M599 690v-70h-49q-38 0 -53.5 -23t-15.5 -68v-73h133v-70h-133v-386h-80v386h-221v-386h-80v386h-78v60l78 10v73q0 161 146 161h52v-70h-49q-38 0 -53.5 -23t-15.5 -68v-73h221v73q0 161 146 161h52z" />
    <glyph glyph-name=".notdef" horiz-adv-x="513" 
d="M50 0v656h413v-656h-413zM88 39h337v578h-337v-578z" />
    <glyph glyph-name=".null" horiz-adv-x="0" 
 />
    <glyph glyph-name=".null" horiz-adv-x="0" 
 />
    <glyph glyph-name="nonmarkingreturn" horiz-adv-x="333" 
 />
    <glyph glyph-name="space" unicode=" " horiz-adv-x="214" 
 />
    <glyph glyph-name="exclam" unicode="!" horiz-adv-x="232" 
d="M148 212h-66l-15 464h98zM116 -7q-26 0 -43.5 17t-17.5 42t17.5 42t43.5 17t43.5 -17t17.5 -42t-17.5 -42t-43.5 -17z" />
    <glyph glyph-name="quotedbl" unicode="&#x22;" horiz-adv-x="357" 
d="M227 432l-9 244h81l-11 -244h-61zM69 432l-11 244h84l-12 -244h-61z" />
    <glyph glyph-name="numbersign" unicode="#" horiz-adv-x="622" 
d="M141 199h-100l8 72h104l22 154h-99l8 71h102l28 180h77l-28 -180h135l27 180h78l-28 -180h106l-8 -71h-109l-23 -154h105l-8 -72h-109l-30 -199h-79l32 199h-134l-31 -199h-78zM252 425l-23 -154h134l23 154h-134z" />
    <glyph glyph-name="dollar" unicode="$" horiz-adv-x="549" 
d="M305 -103h-56v93q-155 7 -209 127l64 45q19 -42 51 -67.5t94 -29.5v240l-29 9q-155 48 -155 176q0 75 47 130t137 64v75h56v-74q68 -4 115.5 -31.5t72.5 -66.5l-64 -47q-39 63 -124 70v-236l35 -10q80 -24 121 -66.5t41 -110.5q0 -82 -52.5 -135t-144.5 -61v-94zM312 287
l-7 2v-223q54 7 81.5 37.5t27.5 77.5q0 42 -26 66.5t-76 39.5zM152 494q0 -41 23 -64.5t73 -38.5l1 -1v218q-47 -9 -72 -39.5t-25 -74.5z" />
    <glyph glyph-name="percent" unicode="%" horiz-adv-x="804" 
d="M639 676l-407 -676h-69l405 676h71zM618 46q42 0 60.5 32t18.5 97q0 66 -18.5 98t-60.5 32q-79 0 -79 -130q0 -129 79 -129zM618 356q143 0 143 -181q0 -180 -143 -180t-143 180q0 86 35 133.5t108 47.5zM183 370q42 0 60.5 32t18.5 97q0 66 -18.5 98t-60.5 32
q-79 0 -79 -130q0 -129 79 -129zM183 680q143 0 143 -181q0 -180 -143 -180t-143 180q0 86 35 133.5t108 47.5z" />
    <glyph glyph-name="ampersand" unicode="&#x26;" horiz-adv-x="649" 
d="M538 358l59 -46l-96 -135l-19 -27l138 -143v-7h-95l-89 92q-92 -103 -212 -103q-84 0 -132.5 43.5t-48.5 108.5q0 43 23.5 82t48 60t65.5 51l15 11l-25 26l-39.5 42t-30 48.5t-16.5 65.5q0 68 52 113.5t139 45.5q82 0 133 -46t51 -113q0 -48 -29.5 -85t-91.5 -82l-35 -26
l126 -130l15 21zM224 60q87 0 160 87l-139 145l-19 -14q-40 -30 -54.5 -42t-32.5 -38.5t-18 -54.5q0 -34 30 -58.5t73 -24.5zM163 527q0 -31 16 -56t48 -57l26 -27l38 28q35 25 49.5 37t28 32.5t13.5 42.5q0 36 -29 62.5t-78 26.5q-51 0 -81.5 -26.5t-30.5 -62.5z" />
    <glyph glyph-name="quotesingle" unicode="'" horiz-adv-x="198" 
d="M68 432l-9 244h81l-11 -244h-61z" />
    <glyph glyph-name="parenleft" unicode="(" horiz-adv-x="271" 
d="M247 -199l-61 -23q-69 108 -104 216t-35 246q0 144 35.5 248.5t103.5 214.5l63 -22q-57 -111 -87 -213.5t-30 -227.5q0 -122 28 -223t87 -216z" />
    <glyph glyph-name="parenright" unicode=")" horiz-adv-x="271" 
d="M24 -199q59 115 87 216t28 223q0 125 -30 227.5t-87 213.5l63 22q68 -111 103 -215.5t35 -247.5q0 -138 -34.5 -245.5t-103.5 -216.5z" />
    <glyph glyph-name="asterisk" unicode="*" horiz-adv-x="468" 
d="M136 326l-51 47l98 115l-138 32l22 72l138 -48l-6 152h77l-7 -151l138 43l17 -74l-136 -28l91 -117l-63 -43l-84 126z" />
    <glyph glyph-name="plus" unicode="+" 
d="M48 235v69h192v200h77v-200h195v-69h-195v-199h-77v199h-192z" />
    <glyph glyph-name="comma" unicode="," horiz-adv-x="220" 
d="M161 112l-54 -224h-62l25 224h91z" />
    <glyph glyph-name="hyphen" unicode="-" horiz-adv-x="386" 
d="M63 305h260v-70h-260v70z" />
    <glyph glyph-name="period" unicode="." horiz-adv-x="233" 
d="M117 -7q-28 0 -46 18t-18 44q0 27 18 44.5t46 17.5q27 0 45 -17.5t18 -44.5q0 -26 -18 -44t-45 -18z" />
    <glyph glyph-name="slash" unicode="/" horiz-adv-x="352" 
d="M322 676l-210 -676h-81l206 676h85z" />
    <glyph glyph-name="zero" unicode="0" horiz-adv-x="596" 
d="M298 63q157 0 157 275t-157 275t-157 -275t157 -275zM298 686q124 0 184 -91.5t60 -256.5t-60 -256.5t-184 -91.5t-184 91.5t-60 256.5t60 256.5t184 91.5z" />
    <glyph glyph-name="one" unicode="1" horiz-adv-x="389" 
d="M306 0h-84v595l-186 -77l-22 68l217 90h75v-676z" />
    <glyph glyph-name="two" unicode="2" horiz-adv-x="520" 
d="M253 686q94 0 149.5 -54.5t55.5 -141.5q0 -66 -33 -120.5t-99 -125.5l-161 -172h307v-72h-420v63l216 232q53 57 78.5 102t25.5 93q0 55 -31.5 89t-87.5 34q-57 0 -87.5 -35.5t-30.5 -94.5h-85q0 92 53 147.5t150 55.5z" />
    <glyph glyph-name="three" unicode="3" horiz-adv-x="549" 
d="M359 348q55 -11 95 -55.5t40 -112.5q0 -85 -61.5 -138t-163.5 -53q-108 0 -164 50t-56 127h85q0 -46 36 -74.5t99 -28.5q65 0 102 32.5t37 87.5q0 59 -42.5 93.5t-114.5 34.5h-61v72h61q66 0 106 30t40 86q0 51 -34 82.5t-94 31.5t-93 -29.5t-33 -74.5h-85q0 75 53.5 126
t157.5 51q98 0 156.5 -52t58.5 -132q0 -61 -36 -101.5t-89 -52.5z" />
    <glyph glyph-name="four" unicode="4" horiz-adv-x="576" 
d="M537 219v-72h-96v-147h-84v147h-324v64l320 465h88v-457h96zM123 219h234v339z" />
    <glyph glyph-name="five" unicode="5" horiz-adv-x="530" 
d="M483 217q0 -99 -59 -163.5t-166 -64.5q-109 0 -163 54t-54 137h85q0 -52 33.5 -84.5t98.5 -32.5q68 0 103 42.5t35 111.5q0 65 -35 102t-99 37t-121 -41l-69 8l42 353h346v-72h-277l-26 -209q62 35 120 35q92 0 149 -55t57 -158z" />
    <glyph glyph-name="six" unicode="6" horiz-adv-x="566" 
d="M144 265q0 -86 36.5 -144t108.5 -58q68 0 104.5 41t36.5 110q0 67 -36 105t-105 38q-47 0 -86.5 -27t-58.5 -65zM417 509q0 48 -32.5 76t-89.5 28q-76 0 -115 -70.5t-39 -192.5q22 30 67 54.5t99 24.5q98 0 154 -58.5t56 -155.5t-59 -161.5t-169 -64.5
q-118 0 -176.5 88.5t-58.5 239.5q0 172 60.5 270.5t180.5 98.5q100 0 153 -50t53 -127h-84z" />
    <glyph glyph-name="seven" unicode="7" horiz-adv-x="474" 
d="M107 0l247 604h-322v72h416v-63l-249 -613h-92z" />
    <glyph glyph-name="eight" unicode="8" horiz-adv-x="574" 
d="M288 -11q-107 0 -170.5 51t-63.5 142q0 68 38.5 111t93.5 56q-53 15 -86 53t-33 98q0 86 59.5 136t161.5 50q101 0 160 -50.5t59 -135.5q0 -60 -33 -98t-86 -53q56 -13 94.5 -55.5t38.5 -111.5q0 -91 -63.5 -142t-169.5 -51zM287 613q-61 0 -97 -30.5t-36 -85.5
q0 -53 37 -83t96 -30q58 0 95.5 30t37.5 83q0 55 -35.5 85.5t-97.5 30.5zM287 63q68 0 107.5 33t39.5 93q0 58 -41.5 91t-105.5 33t-105.5 -33t-41.5 -91q0 -60 40 -93t107 -33z" />
    <glyph glyph-name="nine" unicode="9" horiz-adv-x="566" 
d="M422 410q0 87 -36.5 145t-108.5 58q-68 0 -104.5 -41t-36.5 -110q0 -67 36.5 -105t104.5 -38q47 0 86 26.5t59 64.5zM65 167h85q0 -48 32 -76t88 -28q76 0 115.5 71t39.5 193q-23 -29 -68 -54.5t-98 -25.5q-98 0 -154 58.5t-56 155.5t59.5 161.5t168.5 64.5
q118 0 176.5 -88.5t58.5 -239.5q0 -172 -61 -270.5t-181 -98.5q-100 0 -152.5 50t-52.5 127z" />
    <glyph glyph-name="colon" unicode=":" horiz-adv-x="245" 
d="M122 -7q-26 0 -43 17t-17 42q0 26 17 42.5t43 16.5t43.5 -17t17.5 -42t-17.5 -42t-43.5 -17zM122 347q-26 0 -43 17t-17 43t17 42.5t43 16.5t43.5 -17t17.5 -42q0 -26 -17.5 -43t-43.5 -17z" />
    <glyph glyph-name="semicolon" unicode=";" horiz-adv-x="240" 
d="M122 347q-26 0 -43.5 17t-17.5 43q0 25 17.5 42t43.5 17t43.5 -17t17.5 -42q0 -26 -17.5 -43t-43.5 -17zM171 112l-53 -224h-63l25 224h91z" />
    <glyph glyph-name="less" unicode="&#x3c;" 
d="M74 230v80l395 166v-76l-323 -130l323 -129v-77z" />
    <glyph glyph-name="equal" unicode="=" 
d="M83 421h394v-69h-394v69zM83 189h394v-70h-394v70z" />
    <glyph glyph-name="greater" unicode="&#x3e;" 
d="M485 310v-80l-394 -166v77l323 129l-323 130v76z" />
    <glyph glyph-name="question" unicode="?" horiz-adv-x="449" 
d="M212 -7q-26 0 -43.5 17t-17.5 42t17.5 42t43.5 17q27 0 44.5 -16.5t17.5 -42.5q0 -25 -17.5 -42t-44.5 -17zM215 686q90 0 142.5 -48.5t52.5 -121.5q0 -38 -16 -71.5t-39 -58l-46 -49t-39 -56.5t-16 -69h-82q0 43 16 80t39 63.5l45.5 50.5t38.5 51t16 56q0 40 -28 68.5
t-79 28.5q-47 0 -75 -24t-28 -64l-80 6q0 69 45.5 113.5t132.5 44.5z" />
    <glyph glyph-name="at" unicode="@" horiz-adv-x="899" 
d="M556 336q-41 47 -96 47q-63 0 -104 -58t-41 -137q0 -53 23 -79t62 -26q71 0 118 53zM529 77q-58 -60 -143 -60q-70 0 -106.5 42t-36.5 124q0 107 57.5 185.5t150.5 78.5q74 0 115 -50l7 41h69l-50 -282q-8 -41 -1 -62t34 -21q61 0 107 71.5t46 205.5q0 106 -67 173.5
t-211 67.5q-121 0 -209.5 -57.5t-131 -149t-42.5 -203.5q0 -140 68 -217t211 -77q107 0 194 42l16 -60q-99 -46 -210 -46q-175 0 -261 95.5t-86 263.5q0 131 52.5 237.5t156.5 171t242 64.5q89 0 157 -24.5t108.5 -68t60.5 -97t20 -115.5q0 -156 -68 -247.5t-161 -91.5
q-78 0 -88 66z" />
    <glyph glyph-name="A" unicode="A" horiz-adv-x="610" 
d="M506 0l-61 178h-280l-61 -178h-92l242 676h102l244 -676h-94zM306 588l-118 -338h234z" />
    <glyph glyph-name="B" unicode="B" horiz-adv-x="583" 
d="M82 0v676h212q104 0 156 -45t52 -126q0 -61 -28 -99.5t-77 -50.5q60 -11 99.5 -53t39.5 -115q0 -187 -235 -187h-219zM168 73h124q81 0 118 28.5t37 90.5q0 121 -154 121h-125v-240zM168 386h113q132 0 132 113q0 104 -132 104h-113v-217z" />
    <glyph glyph-name="C" unicode="C" horiz-adv-x="585" 
d="M141 337q0 -126 46.5 -199t145.5 -73q49 0 89.5 23t60.5 63l67 -43q-29 -54 -86 -86t-133 -32q-139 0 -208.5 91t-69.5 256q0 166 69.5 257.5t208.5 91.5q76 0 133 -32t86 -86l-67 -43q-20 40 -60.5 63t-89.5 23q-100 0 -146 -73t-46 -201z" />
    <glyph glyph-name="D" unicode="D" horiz-adv-x="649" 
d="M82 0v676h191q174 0 248.5 -79t74.5 -259q0 -179 -75 -258.5t-248 -79.5h-191zM168 73h101q136 0 187 58.5t51 206.5q0 146 -51.5 205.5t-186.5 59.5h-101v-530z" />
    <glyph glyph-name="E" unicode="E" horiz-adv-x="538" 
d="M168 73h324v-73h-410v676h406v-73h-320v-221h284v-73h-284v-236z" />
    <glyph glyph-name="F" unicode="F" horiz-adv-x="519" 
d="M82 0v676h399v-73h-313v-240h267v-73h-267v-290h-86z" />
    <glyph glyph-name="G" unicode="G" horiz-adv-x="640" 
d="M342 287v74h251q4 -30 4 -49q0 -145 -62.5 -233.5t-198.5 -88.5q-141 0 -212 88.5t-71 259.5q0 348 295 348q151 0 214 -114l-65 -44q-52 83 -152 83q-110 0 -157 -71t-47 -202q0 -137 46 -205.5t148 -68.5q92 0 133.5 60.5t41.5 162.5h-168z" />
    <glyph glyph-name="H" unicode="H" horiz-adv-x="675" 
d="M507 391v285h86v-676h-86v318h-339v-318h-86v676h86v-285h339z" />
    <glyph glyph-name="I" unicode="I" horiz-adv-x="249" 
d="M82 0v676h86v-676h-86z" />
    <glyph glyph-name="J" unicode="J" horiz-adv-x="487" 
d="M22 93l64 41q37 -69 113 -69q64 0 96 40t32 132v439h83v-441q0 -125 -55.5 -185t-155.5 -60q-125 0 -177 103z" />
    <glyph glyph-name="K" unicode="K" horiz-adv-x="605" 
d="M270 335l-102 -106v-229h-86v676h86v-336l313 336h107l-257 -280l256 -396h-103z" />
    <glyph glyph-name="L" unicode="L" horiz-adv-x="476" 
d="M168 73h288v-73h-374v676h86v-603z" />
    <glyph glyph-name="M" unicode="M" horiz-adv-x="859" 
d="M430 109l181 567h114l87 -676h-83l-71 574l-183 -574h-93l-180 574l-73 -574h-84l91 676h118z" />
    <glyph glyph-name="N" unicode="N" horiz-adv-x="680" 
d="M512 139l1 537h85v-676h-90l-340 540v-540h-87l1 676h92z" />
    <glyph glyph-name="O" unicode="O" horiz-adv-x="656" 
d="M141 337q0 -131 42 -201.5t144 -70.5q104 0 146.5 70.5t42.5 201.5t-42.5 202.5t-145.5 71.5q-187 0 -187 -274zM604 337q0 -160 -67.5 -253.5t-209.5 -93.5t-208 93t-66 254q0 162 66 255.5t209 93.5t209.5 -94t66.5 -255z" />
    <glyph glyph-name="P" unicode="P" horiz-adv-x="563" 
d="M297 266h-129v-266h-86v676h215q114 0 170.5 -53.5t56.5 -151.5q0 -97 -57 -151t-170 -54zM168 603v-264h124q144 0 144 132t-144 132h-124z" />
    <glyph glyph-name="Q" unicode="Q" horiz-adv-x="656" 
d="M604 337q0 -132 -43 -215l82 -79l-48 -54l-76 74q-70 -73 -192 -73q-142 0 -208 93t-66 254q0 162 66 255.5t209 93.5t209.5 -94t66.5 -255zM141 337q0 -131 42 -201.5t144 -70.5q89 0 134 54l-166 162l47 51l154 -148q20 60 20 153q0 131 -42.5 202.5t-145.5 71.5
q-187 0 -187 -274z" />
    <glyph glyph-name="R" unicode="R" horiz-adv-x="595" 
d="M82 0v676h234q115 0 173.5 -49t58.5 -139q0 -76 -45.5 -124t-128.5 -60l192 -304h-99l-182 297h-117l-1 -297h-85zM460 488q0 57 -35 86t-116 29h-141v-233h141q81 0 116 30t35 88z" />
    <glyph glyph-name="S" unicode="S" horiz-adv-x="545" 
d="M489 587l-63 -47q-44 71 -146 71q-62 0 -96 -33t-34 -84q0 -41 23 -64.5t73 -38.5l90 -27q80 -25 121.5 -66.5t41.5 -110.5q0 -89 -62 -143t-169 -54q-171 0 -232 128l65 44q21 -46 57 -71.5t110 -25.5q69 0 105.5 31.5t36.5 85.5q0 75 -103 105l-90 27q-155 48 -155 176
q0 83 56 139.5t162 56.5q77 0 130 -28t79 -71z" />
    <glyph glyph-name="T" unicode="T" horiz-adv-x="538" 
d="M32 676h475v-73h-195v-603h-86v603h-194v73z" />
    <glyph glyph-name="U" unicode="U" horiz-adv-x="651" 
d="M325 -10q-116 0 -182.5 63.5t-66.5 198.5v424h86v-425q0 -98 40.5 -142t122.5 -44q81 0 122 44.5t41 141.5v425h86v-424q0 -136 -66.5 -199t-182.5 -63z" />
    <glyph glyph-name="V" unicode="V" horiz-adv-x="596" 
d="M489 676h92l-228 -676h-110l-227 676h91l191 -586z" />
    <glyph glyph-name="W" unicode="W" horiz-adv-x="968" 
d="M434 676h100l163 -576l159 576h91l-194 -676h-107l-162 558l-162 -558h-107l-194 676h91l159 -576z" />
    <glyph glyph-name="X" unicode="X" horiz-adv-x="574" 
d="M27 676h98l162 -268l162 268h99l-204 -327l214 -349h-99l-172 285l-171 -285h-100l214 349z" />
    <glyph glyph-name="Y" unicode="Y" horiz-adv-x="574" 
d="M330 0h-86v270l-231 406h96l179 -326l177 326h97l-232 -406v-270z" />
    <glyph glyph-name="Z" unicode="Z" horiz-adv-x="515" 
d="M468 676v-65l-330 -538h337v-73h-440v64l332 539h-313v73h414z" />
    <glyph glyph-name="bracketleft" unicode="[" horiz-adv-x="300" 
d="M68 690h204v-69h-121v-768h121v-69h-204v906z" />
    <glyph glyph-name="backslash" unicode="\" horiz-adv-x="352" 
d="M240 0l-210 676h84l207 -676h-81z" />
    <glyph glyph-name="bracketright" unicode="]" horiz-adv-x="300" 
d="M28 690h204v-906h-204v69h121v768h-121v69z" />
    <glyph glyph-name="asciicircum" unicode="^" 
d="M40 459l240 240l240 -240l-55 -55l-185 186l-185 -185z" />
    <glyph glyph-name="underscore" unicode="_" horiz-adv-x="500" 
d="M50 -31h400v-58h-400v58z" />
    <glyph glyph-name="grave" unicode="`" horiz-adv-x="600" 
d="M219 696h86l76 -156h-75z" />
    <glyph glyph-name="a" unicode="a" horiz-adv-x="470" 
d="M406 0h-76v56q-56 -66 -153 -66q-65 0 -101.5 34t-36.5 95q0 125 209 147l78 8v45q0 41 -21 61t-74 20q-46 0 -70 -15t-24 -41v-26h-71q-3 16 -3 33q0 52 45 83.5t127 31.5q171 0 171 -146v-320zM120 123q0 -69 80 -69q74 0 126 56v109l-75 -9q-131 -18 -131 -87z" />
    <glyph glyph-name="b" unicode="b" horiz-adv-x="515" 
d="M148 690v-277q45 53 126 53q99 0 147.5 -62.5t48.5 -174.5t-49 -175.5t-147 -63.5q-90 0 -138 54l-23 -44h-45v690h80zM389 229q0 163 -129 163q-76 0 -112 -55v-215q37 -58 112 -58q129 0 129 165z" />
    <glyph glyph-name="c" unicode="c" horiz-adv-x="447" 
d="M45 227q0 107 50 173t152 66q122 0 170 -93l-58 -40q-36 61 -107 61q-65 0 -95.5 -45t-30.5 -122t30.5 -121.5t95.5 -44.5q72 0 107 62l58 -41q-49 -92 -170 -92q-102 0 -152 65t-50 172z" />
    <glyph glyph-name="d" unicode="d" horiz-adv-x="516" 
d="M369 413v277h79v-690h-77v43q-46 -53 -134 -53q-95 0 -143.5 63t-48.5 176q0 112 48.5 174.5t144.5 62.5q86 0 131 -53zM127 229q0 -165 128 -165q79 0 114 55v218q-41 55 -114 55q-128 0 -128 -163z" />
    <glyph glyph-name="e" unicode="e" horiz-adv-x="471" 
d="M254 59q74 0 124 49l40 -54q-24 -26 -69 -45t-95 -19q-108 0 -158.5 64t-50.5 175q0 104 51 170.5t149 66.5q90 0 136.5 -56t46.5 -136q0 -33 -6 -71h-297q3 -144 129 -144zM126 264h224q2 12 2 20q0 52 -28.5 83.5t-78.5 31.5q-110 0 -119 -135z" />
    <glyph glyph-name="f" unicode="f" horiz-adv-x="329" 
d="M298 690v-70h-49q-38 0 -53.5 -23t-15.5 -68v-73h133v-70h-133v-386h-80v386h-78v60l78 10v73q0 161 146 161h52z" />
    <glyph glyph-name="g" unicode="g" horiz-adv-x="512" 
d="M368 456h77v-491q0 -73 -52 -121t-139 -48q-85 0 -132 40t-47 98h72q0 -28 29.5 -50t77.5 -22q52 0 81.5 28t29.5 72v85q-47 -57 -125 -57q-98 0 -146.5 63t-48.5 175t49 175t145 63q82 0 129 -54v44zM127 228q0 -164 127 -164q72 0 111 55v218q-39 55 -111 55
q-69 0 -98 -43t-29 -121z" />
    <glyph glyph-name="h" unicode="h" horiz-adv-x="519" 
d="M68 0v690h80v-284q21 26 60.5 43t86.5 17q83 0 121.5 -44t38.5 -131v-291h-79v284q0 55 -24 81.5t-81 26.5q-38 0 -71 -15t-52 -38v-339h-80z" />
    <glyph glyph-name="i" unicode="i" horiz-adv-x="216" 
d="M68 0v456h80v-456h-80zM107 567q-56 0 -56 54q0 28 15.5 42t40.5 14q24 0 40 -14t16 -42q0 -27 -16 -40.5t-40 -13.5z" />
    <glyph glyph-name="j" unicode="j" horiz-adv-x="217" 
d="M27 -226l-42 56q47 22 65 54t18 89v483h80v-471q0 -84 -29 -134t-92 -77zM108 567q-57 0 -57 54q0 28 16 42t41 14q23 0 39 -14.5t16 -41.5t-16 -40.5t-39 -13.5z" />
    <glyph glyph-name="k" unicode="k" horiz-adv-x="473" 
d="M456 0h-92l-143 225l-73 -70v-155h-80v690h80v-439l211 205h102l-184 -176z" />
    <glyph glyph-name="l" unicode="l" horiz-adv-x="234" 
d="M64 690h80v-561q0 -30 10 -43.5t36 -13.5h25v-74h-47q-57 0 -80.5 31t-23.5 91v570z" />
    <glyph glyph-name="m" unicode="m" horiz-adv-x="808" 
d="M67 0v456h78v-53q57 63 135 63q96 0 145 -70q59 70 158 70q84 0 123 -42.5t39 -127.5v-296h-80v291q0 52 -23 76.5t-76 24.5q-72 0 -118 -53v-339h-79v334q-30 58 -106 58q-62 0 -116 -52v-340h-80z" />
    <glyph glyph-name="n" unicode="n" horiz-adv-x="518" 
d="M67 0v456h78v-55q21 29 61 47t89 18q83 0 121.5 -44t38.5 -131v-291h-80v284q0 55 -23.5 81.5t-80.5 26.5q-80 0 -124 -53v-339h-80z" />
    <glyph glyph-name="o" unicode="o" horiz-adv-x="500" 
d="M251 466q103 0 154 -64.5t51 -172.5q0 -110 -51 -174.5t-157 -64.5q-100 0 -151.5 65t-51.5 173t51 173t155 65zM249 63q125 0 125 165t-125 165q-123 0 -123 -164q0 -166 123 -166z" />
    <glyph glyph-name="p" unicode="p" horiz-adv-x="517" 
d="M147 42v-258h-80v672h77v-44q47 54 135 54q95 0 144 -63.5t49 -176.5q0 -111 -49 -173.5t-145 -62.5q-86 0 -131 52zM390 226q0 166 -128 166q-80 0 -115 -56v-218q41 -54 114 -54q70 0 99.5 42t29.5 120z" />
    <glyph glyph-name="q" unicode="q" horiz-adv-x="512" 
d="M365 -216v258q-45 -52 -125 -52q-98 0 -146.5 62t-48.5 174t49 176t146 64q88 0 137 -55l23 45h45v-672h-80zM127 226q0 -77 29 -119.5t99 -42.5q75 0 110 54v215q-37 59 -110 59q-128 0 -128 -166z" />
    <glyph glyph-name="r" unicode="r" horiz-adv-x="342" 
d="M145 381h1q43 85 127 85q34 0 55 -7l-9 -84q-32 9 -61 9q-72 0 -111 -86v-298h-80v456h78v-75z" />
    <glyph glyph-name="s" unicode="s" horiz-adv-x="430" 
d="M381 402l-47 -49q-45 49 -116 49q-44 0 -66 -19.5t-22 -49.5q0 -46 56 -60l78 -18q127 -30 127 -128q0 -60 -47 -98.5t-136 -38.5q-115 0 -174 76l49 49q16 -19 29 -30.5t39 -21.5t60 -10q45 0 71.5 17.5t26.5 50.5q0 46 -68 63l-80 19q-111 27 -111 124q0 56 42.5 97.5
t128.5 41.5q106 0 160 -64z" />
    <glyph glyph-name="t" unicode="t" horiz-adv-x="339" 
d="M185 387v-255q0 -68 62 -68q29 0 62 14l8 -69q-40 -19 -93 -19q-118 0 -118 133v264h-87v59l87 10v114l79 15v-129h122v-69h-122z" />
    <glyph glyph-name="u" unicode="u" horiz-adv-x="518" 
d="M451 456v-456h-78v55q-21 -29 -61 -47t-89 -18q-83 0 -121.5 44t-38.5 131v291h80v-284q0 -55 23.5 -81.5t80.5 -26.5q80 0 124 53v339h80z" />
    <glyph glyph-name="v" unicode="v" horiz-adv-x="477" 
d="M370 456h86l-169 -456h-97l-171 456h87l133 -379z" />
    <glyph glyph-name="w" unicode="w" horiz-adv-x="757" 
d="M339 456h79l118 -369l114 369h85l-149 -456h-89l-118 354l-119 -354h-89l-148 456h84l114 -369z" />
    <glyph glyph-name="x" unicode="x" horiz-adv-x="453" 
d="M277 228l153 -228h-93l-110 172l-112 -172h-92l153 229l-153 227h93l110 -172l112 172h92z" />
    <glyph glyph-name="y" unicode="y" horiz-adv-x="480" 
d="M105 456l143 -333l128 333h88l-277 -672h-84l104 245l-192 427h90z" />
    <glyph glyph-name="z" unicode="z" horiz-adv-x="411" 
d="M366 456v-56l-228 -330h231v-70h-331v56l229 330h-218v70h317z" />
    <glyph glyph-name="braceleft" unicode="{" horiz-adv-x="294" 
d="M189 553v-209q0 -96 -71 -107q71 -9 71 -108v-207q0 -42 16 -58t54 -16v-64q-81 0 -116.5 29.5t-35.5 107.5v202q0 46 -21 64t-69 18v64q49 0 69.5 18t20.5 64v202q0 75 36 106t116 31v-64q-38 0 -54 -16t-16 -57z" />
    <glyph glyph-name="bar" unicode="|" horiz-adv-x="195" 
d="M126 -216h-58v906h58v-906z" />
    <glyph glyph-name="braceright" unicode="}" horiz-adv-x="294" 
d="M105 344v209q0 41 -16 57t-54 16v64q80 0 116 -31t36 -106v-202q0 -46 20.5 -64t69.5 -18v-64q-48 0 -69 -18t-21 -64v-202q0 -78 -35.5 -107.5t-116.5 -29.5v64q38 0 54 16t16 58v207q0 99 71 108q-71 11 -71 107z" />
    <glyph glyph-name="asciitilde" unicode="~" 
d="M457 309l-9 -76q-45 35 -81 35q-27 0 -84.5 -36.5t-94.5 -36.5q-47 0 -86 34l6 77q43 -35 77 -35q30 0 85 36.5t96 36.5q45 0 91 -35z" />
    <glyph glyph-name="uni00A0" unicode="&#xa0;" horiz-adv-x="214" 
 />
    <glyph glyph-name="exclamdown" unicode="&#xa1;" horiz-adv-x="222" 
d="M79 247h66l14 -464h-97zM111 466q26 0 43.5 -17t17.5 -42t-17.5 -42t-43.5 -17q-27 0 -44 16.5t-17 42.5t17 42.5t44 16.5z" />
    <glyph glyph-name="cent" unicode="&#xa2;" horiz-adv-x="477" 
d="M52 227q0 107 50.5 173t151.5 66q11 0 31 -2l18 76l49 -11l-19 -76q60 -23 92 -80l-59 -40q-19 34 -50 49l-78 -320q7 -1 21 -1q73 0 108 62l58 -41q-49 -92 -171 -92q-11 0 -33 2l-14 -61l-48 11l15 62q-61 23 -91.5 82t-30.5 141zM134 227q0 -111 58 -149l76 316h-9
q-125 0 -125 -167z" />
    <glyph glyph-name="sterling" unicode="&#xa3;" 
d="M38 328h67v117q0 107 51 174t159 67q129 0 208 -94l-55 -54q-59 71 -150 71q-130 0 -130 -166v-115h191v-59h-191v-199h295v-70h-378v269h-67v59z" />
    <glyph glyph-name="currency" unicode="&#xa4;" horiz-adv-x="539" 
d="M406 353q14 -33 14 -78t-15 -80l80 -83l-55 -55l-80 77q-32 -21 -83 -21q-53 0 -84 21l-73 -74l-54 54l76 77q-16 35 -16 83q0 46 14 78l-77 80l56 56l74 -75q35 23 86 23q53 0 87 -24l75 74l52 -53zM268 185q80 0 80 89t-80 89t-80 -88q0 -90 80 -90z" />
    <glyph glyph-name="yen" unicode="&#xa5;" horiz-adv-x="588" 
d="M75 296h163l-42 78h-121v59h89l-134 243h94l169 -322l171 322h95l-138 -243h90v-59h-123l-44 -78h167v-58h-178v-238h-84v238h-174v58z" />
    <glyph glyph-name="brokenbar" unicode="&#xa6;" horiz-adv-x="202" 
d="M130 306h-58v384h58v-384zM72 170h58v-386h-58v386z" />
    <glyph glyph-name="section" unicode="&#xa7;" horiz-adv-x="556" 
d="M501 268q0 -74 -74 -123q71 -42 71 -109q0 -65 -58.5 -108t-165.5 -43q-160 0 -229 98l50 52q64 -82 183 -82q60 0 96.5 18t36.5 55q0 20 -17.5 36.5t-35 25t-50.5 20.5l-106 41q-138 50 -138 148q0 35 19 68.5t52 55.5q-68 44 -68 112q0 59 56.5 106t158.5 47
q147 0 215 -94l-53 -50q-63 75 -168 75q-53 0 -88 -21t-35 -54q0 -30 27.5 -48.5t86.5 -40.5l80 -28q77 -28 115.5 -64t38.5 -93zM202 392q-24 -13 -39 -36t-15 -47q0 -31 25 -52.5t78 -40.5l109 -42q56 35 56 83q0 35 -27 56.5t-80 40.5z" />
    <glyph glyph-name="dieresis" unicode="&#xa8;" horiz-adv-x="600" 
d="M208 557q-56 0 -56 54q0 28 15.5 42t40.5 14q24 0 40 -14t16 -42q0 -27 -16 -40.5t-40 -13.5zM391 557q-55 0 -55 54q0 56 55 56q24 0 40 -14t16 -42q0 -27 -16 -40.5t-40 -13.5z" />
    <glyph glyph-name="copyright" unicode="&#xa9;" horiz-adv-x="814" 
d="M51 337q0 159 101 258.5t256 99.5q154 0 254.5 -99.5t100.5 -258.5t-100.5 -259.5t-254.5 -100.5t-255.5 100.5t-101.5 259.5zM117 337q0 -135 81 -216t210 -81q128 0 209 81t81 216t-81 215.5t-209 80.5q-129 0 -210 -80.5t-81 -215.5zM293 335q0 -141 112 -141
q64 0 102 53l50 -45q-60 -73 -154 -73q-83 0 -133 55.5t-50 150.5q0 93 51.5 148.5t132.5 55.5q86 0 149 -67l-48 -44q-46 46 -99 46q-56 0 -84.5 -37t-28.5 -102z" />
    <glyph glyph-name="ordfeminine" unicode="&#xaa;" horiz-adv-x="357" 
d="M293 350h-58v33q-38 -40 -95 -40q-44 0 -67.5 21t-23.5 59q0 82 139 95l44 5v24q0 44 -54 44q-56 0 -56 -28v-16h-56q-1 8 -1 20q0 32 30 52t85 20q54 0 83.5 -23.5t29.5 -67.5v-198zM111 426q0 -36 44 -36q45 0 77 37v55l-41 -5q-80 -11 -80 -51z" />
    <glyph glyph-name="guillemotleft" unicode="&#xab;" horiz-adv-x="498" 
d="M29 270l179 215l53 -38l-135 -177l135 -178l-53 -38zM220 270l179 215l53 -38l-135 -177l135 -178l-53 -38z" />
    <glyph glyph-name="logicalnot" unicode="&#xac;" 
d="M43 312v69h463v-261h-77v192h-386z" />
    <glyph glyph-name="uni00AD" unicode="&#xad;" horiz-adv-x="386" 
d="M63 305h260v-70h-260v70z" />
    <glyph glyph-name="registered" unicode="&#xae;" horiz-adv-x="814" 
d="M495 419q0 28 -20 46.5t-64 18.5h-86v-131h82q45 0 66.5 20t21.5 46zM262 133v402h146q150 0 150 -114q0 -44 -29 -74t-80 -38l120 -176h-73l-112 170h-59v-170h-63zM51 337q0 159 101 258.5t256 99.5q154 0 254.5 -99.5t100.5 -258.5t-100.5 -259.5t-254.5 -100.5
t-255.5 100.5t-101.5 259.5zM117 337q0 -135 81 -216t210 -81q128 0 209 81t81 216t-81 215.5t-209 80.5q-129 0 -210 -80.5t-81 -215.5z" />
    <glyph glyph-name="macron" unicode="&#xaf;" horiz-adv-x="600" 
d="M159 641h281v-66h-281v66z" />
    <glyph glyph-name="degree" unicode="&#xb0;" horiz-adv-x="359" 
d="M43 546q0 60 37 100t98 40q63 0 100.5 -40t37.5 -100q0 -58 -37.5 -98t-100.5 -40q-61 0 -98 40t-37 98zM96 546q0 -38 22.5 -62.5t59.5 -24.5q39 0 62 24.5t23 62.5t-23 63.5t-62 25.5q-37 0 -59.5 -25.5t-22.5 -63.5z" />
    <glyph glyph-name="plusminus" unicode="&#xb1;" 
d="M48 369v70h192v198h76v-198h195v-70h-195v-173h-76v173h-192zM48 33v70h463v-70h-463z" />
    <glyph glyph-name="twosuperior" unicode="&#xb2;" horiz-adv-x="310" 
d="M151 793q55 0 88.5 -29.5t33.5 -75.5q0 -34 -20 -63.5t-58 -65.5l-77 -72h160v-50h-244v43l120 115q54 51 54 93q0 24 -15 39t-42 15q-58 0 -58 -61h-62q0 51 30.5 81.5t89.5 30.5z" />
    <glyph glyph-name="threesuperior" unicode="&#xb3;" horiz-adv-x="323" 
d="M216 615q30 -6 51.5 -28.5t21.5 -56.5q0 -45 -36 -72.5t-96 -27.5q-63 0 -95.5 27t-32.5 70h63q0 -21 17.5 -33t47.5 -12q31 0 49.5 13.5t18.5 37.5q0 26 -21 41.5t-59 15.5h-35v50h35q34 0 54 13.5t20 37.5q0 23 -17 36.5t-45 13.5t-44 -12.5t-16 -32.5h-63q0 42 31 69
t92 27q58 0 92 -27.5t34 -70.5q0 -30 -19 -51t-48 -28z" />
    <glyph glyph-name="acute" unicode="&#xb4;" horiz-adv-x="600" 
d="M295 696h86l-87 -156h-75z" />
    <glyph glyph-name="mu" unicode="&#xb5;" horiz-adv-x="519" 
d="M145 -216h-79v672h79v-284q0 -55 24 -81.5t81 -26.5q80 0 124 53v339h79v-456h-77v55q-22 -29 -62 -47t-88 -18q-47 0 -81 14v-220z" />
    <glyph glyph-name="paragraph" unicode="&#xb6;" horiz-adv-x="501" 
d="M199 456h107v-498h-74v204q-105 0 -152 34.5t-47 112.5q0 68 41.5 107.5t124.5 39.5zM324 -226l-40 54q45 22 63 52t18 87v489h73v-477q0 -50 -8 -85.5t-34 -68t-72 -51.5z" />
    <glyph glyph-name="periodcentered" unicode="&#xb7;" horiz-adv-x="244" 
d="M122 209q-28 0 -46 18t-18 44q0 27 18 44.5t46 17.5q27 0 45 -17.5t18 -44.5q0 -26 -18 -44t-45 -18z" />
    <glyph glyph-name="cedilla" unicode="&#xb8;" horiz-adv-x="600" 
d="M278 6l55 -6l-21 -54q92 0 92 -81q0 -34 -27.5 -57.5t-75.5 -23.5q-43 0 -87 22v58q38 -28 82 -28q19 0 30 8t11 21q0 34 -54 34h-36l-4 6z" />
    <glyph glyph-name="onesuperior" unicode="&#xb9;" horiz-adv-x="236" 
d="M185 436h-63v293l-101 -37l-15 48l124 46h55v-350z" />
    <glyph glyph-name="ordmasculine" unicode="&#xba;" horiz-adv-x="366" 
d="M184 639q67 0 101 -41t34 -106q0 -68 -34 -108.5t-103 -40.5q-67 0 -101 40.5t-34 107.5t34 107.5t103 40.5zM183 395q74 0 74 96t-74 96t-74 -95q0 -97 74 -97z" />
    <glyph glyph-name="guillemotright" unicode="&#xbb;" horiz-adv-x="498" 
d="M290 485l179 -215l-179 -216l-53 38l135 178l-135 177zM99 485l179 -215l-179 -216l-53 38l135 178l-135 177z" />
    <glyph glyph-name="onequarter" unicode="&#xbc;" horiz-adv-x="709" 
d="M668 120v-50h-49v-70h-62v70h-180v45l177 235h65v-230h49zM443 120h114v150zM592 676l-407 -676h-69l405 676h71zM211 324h-63v293l-101 -37l-15 48l124 46h55v-350z" />
    <glyph glyph-name="onehalf" unicode="&#xbd;" horiz-adv-x="738" 
d="M592 676l-407 -676h-69l405 676h71zM565 356q55 0 88.5 -29.5t33.5 -75.5q0 -34 -20 -63.5t-58 -65.5l-77 -72h160v-50h-244v43l120 115q54 51 54 93q0 24 -15 39t-42 15q-58 0 -58 -61h-62q0 51 30.5 81.5t89.5 30.5zM211 324h-63v293l-101 -37l-15 48l124 46h55v-350z
" />
    <glyph glyph-name="threequarters" unicode="&#xbe;" horiz-adv-x="748" 
d="M231 503q30 -6 51.5 -28.5t21.5 -56.5q0 -45 -36 -72.5t-96 -27.5q-63 0 -95.5 27t-32.5 70h63q0 -21 17.5 -33t47.5 -12q31 0 49.5 13.5t18.5 37.5q0 26 -21 41.5t-59 15.5h-35v50h35q34 0 54 13.5t20 37.5q0 23 -17 36.5t-45 13.5t-44 -12.5t-16 -32.5h-63q0 42 31 69
t92 27q58 0 92 -27.5t34 -70.5q0 -30 -19 -51t-48 -28zM632 676l-407 -676h-69l405 676h71zM709 120v-50h-49v-70h-62v70h-180v45l177 235h65v-230h49zM484 120h114v150z" />
    <glyph glyph-name="questiondown" unicode="&#xbf;" horiz-adv-x="441" 
d="M233 467q26 0 43.5 -17t17.5 -42t-17.5 -42t-43.5 -17q-27 0 -44.5 16.5t-17.5 42.5q0 25 17.5 42t44.5 17zM230 -226q-90 0 -142.5 48.5t-52.5 121.5q0 38 16 71.5t39 58l46 49t39 56.5t16 69h82q0 -43 -16 -80t-38.5 -63.5t-45.5 -50.5t-39 -51t-16 -56q0 -40 28 -68.5
t79 -28.5q47 0 75 24t28 64l80 -6q0 -69 -45.5 -113.5t-132.5 -44.5z" />
    <glyph glyph-name="Agrave" unicode="&#xc0;" horiz-adv-x="610" 
d="M506 0l-61 178h-280l-61 -178h-92l242 676h102l244 -676h-94zM306 588l-118 -338h234zM183 900h86l76 -156h-75z" />
    <glyph glyph-name="Aacute" unicode="&#xc1;" horiz-adv-x="610" 
d="M506 0l-61 178h-280l-61 -178h-92l242 676h102l244 -676h-94zM306 588l-118 -338h234zM342 900h86l-87 -156h-75z" />
    <glyph glyph-name="Acircumflex" unicode="&#xc2;" horiz-adv-x="610" 
d="M506 0l-61 178h-280l-61 -178h-92l242 676h102l244 -676h-94zM306 588l-118 -338h234zM265 900h81l102 -156h-74l-69 101l-67 -101h-74z" />
    <glyph glyph-name="Atilde" unicode="&#xc3;" horiz-adv-x="610" 
d="M506 0l-61 178h-280l-61 -178h-92l242 676h102l244 -676h-94zM306 588l-118 -338h234zM445 839l-6 -63q-33 26 -64 26q-22 0 -67 -19.5t-75 -19.5q-42 0 -67 25l6 61q24 -24 61 -24q23 0 66 19t76 19q36 0 70 -24z" />
    <glyph glyph-name="Adieresis" unicode="&#xc4;" horiz-adv-x="610" 
d="M506 0l-61 178h-280l-61 -178h-92l242 676h102l244 -676h-94zM306 588l-118 -338h234zM214 761q-56 0 -56 54q0 28 15.5 42t40.5 14q24 0 40 -14t16 -42q0 -27 -16 -40.5t-40 -13.5zM397 761q-55 0 -55 54q0 56 55 56q24 0 40 -14t16 -42q0 -27 -16 -40.5t-40 -13.5z" />
    <glyph glyph-name="Aring" unicode="&#xc5;" horiz-adv-x="610" 
d="M506 0l-61 178h-280l-61 -178h-92l242 676h102l244 -676h-94zM306 588l-118 -338h234zM202 810q0 41 28 68t75 27q49 0 77.5 -27t28.5 -68q0 -40 -28.5 -67.5t-77.5 -27.5q-47 0 -75 27.5t-28 67.5zM255 810q0 -21 13.5 -34.5t36.5 -13.5q25 0 39 13.5t14 34.5
q0 22 -14 35.5t-39 13.5q-23 0 -36.5 -13.5t-13.5 -35.5z" />
    <glyph glyph-name="AE" unicode="&#xc6;" horiz-adv-x="940" 
d="M257 249h227v345zM93 0h-94l454 676h437v-73h-320v-221h285v-73h-285v-239h324v-70h-410v178h-271z" />
    <glyph glyph-name="Ccedilla" unicode="&#xc7;" horiz-adv-x="585" 
d="M141 337q0 -126 46.5 -199t145.5 -73q49 0 89.5 23t60.5 63l67 -43q-27 -50 -78.5 -81.5t-120.5 -35.5l-17 -45q92 0 92 -81q0 -34 -27.5 -57.5t-75.5 -23.5q-43 0 -87 22v58q38 -28 82 -28q19 0 30 8t11 21q0 34 -54 34h-36l-4 6l30 87q-121 11 -181.5 101t-60.5 244
q0 166 69.5 257.5t208.5 91.5q76 0 133 -32t86 -86l-67 -43q-20 40 -60.5 63t-89.5 23q-100 0 -146 -73t-46 -201z" />
    <glyph glyph-name="Egrave" unicode="&#xc8;" horiz-adv-x="539" 
d="M168 73h324v-73h-410v676h406v-73h-320v-221h284v-73h-284v-236zM168 900h86l76 -156h-75z" />
    <glyph glyph-name="Eacute" unicode="&#xc9;" horiz-adv-x="539" 
d="M168 73h324v-73h-410v676h406v-73h-320v-221h284v-73h-284v-236zM322 900h86l-87 -156h-75z" />
    <glyph glyph-name="Ecircumflex" unicode="&#xca;" horiz-adv-x="539" 
d="M168 73h324v-73h-410v676h406v-73h-320v-221h284v-73h-284v-236zM245 900h81l102 -156h-74l-69 101l-67 -101h-74z" />
    <glyph glyph-name="Edieresis" unicode="&#xcb;" horiz-adv-x="539" 
d="M168 73h324v-73h-410v676h406v-73h-320v-221h284v-73h-284v-236zM194 761q-56 0 -56 54q0 28 15.5 42t40.5 14q24 0 40 -14t16 -42q0 -27 -16 -40.5t-40 -13.5zM377 761q-55 0 -55 54q0 56 55 56q24 0 40 -14t16 -42q0 -27 -16 -40.5t-40 -13.5z" />
    <glyph glyph-name="Igrave" unicode="&#xcc;" horiz-adv-x="249" 
d="M82 0v676h86v-676h-86zM1 900h86l76 -156h-75z" />
    <glyph glyph-name="Iacute" unicode="&#xcd;" horiz-adv-x="249" 
d="M82 0v676h86v-676h-86zM164 900h86l-87 -156h-75z" />
    <glyph glyph-name="Icircumflex" unicode="&#xce;" horiz-adv-x="249" 
d="M82 0v676h86v-676h-86zM84 900h81l102 -156h-74l-69 101l-67 -101h-74z" />
    <glyph glyph-name="Idieresis" unicode="&#xcf;" horiz-adv-x="249" 
d="M82 0v676h86v-676h-86zM33 761q-56 0 -56 54q0 28 15.5 42t40.5 14q24 0 40 -14t16 -42q0 -27 -16 -40.5t-40 -13.5zM216 761q-55 0 -55 54q0 56 55 56q24 0 40 -14t16 -42q0 -27 -16 -40.5t-40 -13.5z" />
    <glyph glyph-name="Eth" unicode="&#xd0;" horiz-adv-x="656" 
d="M22 377h67v299h191q174 0 248.5 -79t74.5 -259q0 -179 -75 -258.5t-248 -79.5h-191v314h-67v63zM175 73h101q136 0 187 58.5t51 206.5q0 146 -51.5 205.5t-186.5 59.5h-101v-226h115v-63h-115v-241z" />
    <glyph glyph-name="Ntilde" unicode="&#xd1;" horiz-adv-x="680" 
d="M512 139l1 537h85v-676h-90l-340 540v-540h-87l1 676h92zM479 839l-6 -63q-33 26 -64 26q-22 0 -67 -19.5t-75 -19.5q-42 0 -67 25l6 61q24 -24 61 -24q23 0 66 19t76 19q36 0 70 -24z" />
    <glyph glyph-name="Ograve" unicode="&#xd2;" horiz-adv-x="656" 
d="M141 337q0 -131 42 -201.5t144 -70.5q104 0 146.5 70.5t42.5 201.5t-42.5 202.5t-145.5 71.5q-187 0 -187 -274zM604 337q0 -160 -67.5 -253.5t-209.5 -93.5t-208 93t-66 254q0 162 66 255.5t209 93.5t209.5 -94t66.5 -255zM210 900h86l76 -156h-75z" />
    <glyph glyph-name="Oacute" unicode="&#xd3;" horiz-adv-x="656" 
d="M141 337q0 -131 42 -201.5t144 -70.5q104 0 146.5 70.5t42.5 201.5t-42.5 202.5t-145.5 71.5q-187 0 -187 -274zM604 337q0 -160 -67.5 -253.5t-209.5 -93.5t-208 93t-66 254q0 162 66 255.5t209 93.5t209.5 -94t66.5 -255zM365 900h86l-87 -156h-75z" />
    <glyph glyph-name="Ocircumflex" unicode="&#xd4;" horiz-adv-x="656" 
d="M141 337q0 -131 42 -201.5t144 -70.5q104 0 146.5 70.5t42.5 201.5t-42.5 202.5t-145.5 71.5q-187 0 -187 -274zM604 337q0 -160 -67.5 -253.5t-209.5 -93.5t-208 93t-66 254q0 162 66 255.5t209 93.5t209.5 -94t66.5 -255zM287 900h81l102 -156h-74l-69 101l-67 -101
h-74z" />
    <glyph glyph-name="Otilde" unicode="&#xd5;" horiz-adv-x="656" 
d="M141 337q0 -131 42 -201.5t144 -70.5q104 0 146.5 70.5t42.5 201.5t-42.5 202.5t-145.5 71.5q-187 0 -187 -274zM604 337q0 -160 -67.5 -253.5t-209.5 -93.5t-208 93t-66 254q0 162 66 255.5t209 93.5t209.5 -94t66.5 -255zM467 839l-6 -63q-33 26 -64 26
q-22 0 -67 -19.5t-75 -19.5q-42 0 -67 25l6 61q24 -24 61 -24q23 0 66 19t76 19q36 0 70 -24z" />
    <glyph glyph-name="Odieresis" unicode="&#xd6;" horiz-adv-x="656" 
d="M141 337q0 -131 42 -201.5t144 -70.5q104 0 146.5 70.5t42.5 201.5t-42.5 202.5t-145.5 71.5q-187 0 -187 -274zM604 337q0 -160 -67.5 -253.5t-209.5 -93.5t-208 93t-66 254q0 162 66 255.5t209 93.5t209.5 -94t66.5 -255zM236 761q-56 0 -56 54q0 28 15.5 42t40.5 14
q24 0 40 -14t16 -42q0 -27 -16 -40.5t-40 -13.5zM419 761q-55 0 -55 54q0 56 55 56q24 0 40 -14t16 -42q0 -27 -16 -40.5t-40 -13.5z" />
    <glyph glyph-name="multiply" unicode="&#xd7;" 
d="M121 59l-51 52l156 157l-160 160l54 55l161 -161l159 159l51 -52l-159 -159l161 -160l-55 -55l-160 161z" />
    <glyph glyph-name="Oslash" unicode="&#xd8;" horiz-adv-x="659" 
d="M605 337q0 -160 -67.5 -253.5t-209.5 -93.5q-112 0 -177 59l-38 -49h-76l73 97q-56 88 -56 240q0 162 66 255.5t209 93.5q112 0 180 -63l40 53h79l-78 -102q55 -88 55 -237zM142 337q0 -103 24 -167l294 388q-45 53 -131 53q-187 0 -187 -274zM517 337q0 100 -24 162
l-293 -385q44 -49 128 -49q104 0 146.5 70.5t42.5 201.5z" />
    <glyph glyph-name="Ugrave" unicode="&#xd9;" horiz-adv-x="651" 
d="M325 -10q-116 0 -182.5 63.5t-66.5 198.5v424h86v-425q0 -98 40.5 -142t122.5 -44q81 0 122 44.5t41 141.5v425h86v-424q0 -136 -66.5 -199t-182.5 -63zM202 900h86l76 -156h-75z" />
    <glyph glyph-name="Uacute" unicode="&#xda;" horiz-adv-x="651" 
d="M325 -10q-116 0 -182.5 63.5t-66.5 198.5v424h86v-425q0 -98 40.5 -142t122.5 -44q81 0 122 44.5t41 141.5v425h86v-424q0 -136 -66.5 -199t-182.5 -63zM363 900h86l-87 -156h-75z" />
    <glyph glyph-name="Ucircumflex" unicode="&#xdb;" horiz-adv-x="651" 
d="M325 -10q-116 0 -182.5 63.5t-66.5 198.5v424h86v-425q0 -98 40.5 -142t122.5 -44q81 0 122 44.5t41 141.5v425h86v-424q0 -136 -66.5 -199t-182.5 -63zM284 900h81l102 -156h-74l-69 101l-67 -101h-74z" />
    <glyph glyph-name="Udieresis" unicode="&#xdc;" horiz-adv-x="651" 
d="M325 -10q-116 0 -182.5 63.5t-66.5 198.5v424h86v-425q0 -98 40.5 -142t122.5 -44q81 0 122 44.5t41 141.5v425h86v-424q0 -136 -66.5 -199t-182.5 -63zM233 761q-56 0 -56 54q0 28 15.5 42t40.5 14q24 0 40 -14t16 -42q0 -27 -16 -40.5t-40 -13.5zM416 761q-55 0 -55 54
q0 56 55 56q24 0 40 -14t16 -42q0 -27 -16 -40.5t-40 -13.5z" />
    <glyph glyph-name="Yacute" unicode="&#xdd;" horiz-adv-x="576" 
d="M330 0h-86v270l-231 406h96l179 -326l177 326h97l-232 -406v-270zM324 900h86l-87 -156h-75z" />
    <glyph glyph-name="Thorn" unicode="&#xde;" horiz-adv-x="562" 
d="M297 136h-129v-136h-86v677h85v-131h130q114 0 170.5 -53.5t56.5 -151.5q0 -97 -57 -151t-170 -54zM168 473v-264h124q144 0 144 132t-144 132h-124z" />
    <glyph glyph-name="germandbls" unicode="&#xdf;" horiz-adv-x="548" 
d="M67 0v492q0 95 43.5 151.5t136.5 56.5t138 -47t45 -117q0 -37 -22 -73t-44 -63t-22 -42q0 -30 51 -60l38 -25q87 -57 87 -141q0 -62 -44.5 -102.5t-120.5 -40.5q-60 0 -116 29l26 65q44 -26 83 -26q42 0 66.5 21t24.5 54q0 50 -57 87l-43 29q-41 27 -59 48t-18 54
q0 21 13.5 44.5t30 42t30 44t13.5 49.5q0 48 -26.5 73.5t-75.5 25.5q-58 0 -78.5 -34.5t-20.5 -100.5v-494h-79z" />
    <glyph glyph-name="agrave" unicode="&#xe0;" horiz-adv-x="470" 
d="M406 0h-76v56q-56 -66 -153 -66q-65 0 -101.5 34t-36.5 95q0 125 209 147l78 8v45q0 41 -21 61t-74 20q-46 0 -70 -15t-24 -41v-26h-71q-3 16 -3 33q0 52 45 83.5t127 31.5q171 0 171 -146v-320zM120 123q0 -69 80 -69q74 0 126 56v109l-75 -9q-131 -18 -131 -87z
M126 696h86l76 -156h-75z" />
    <glyph glyph-name="aacute" unicode="&#xe1;" horiz-adv-x="470" 
d="M406 0h-76v56q-56 -66 -153 -66q-65 0 -101.5 34t-36.5 95q0 125 209 147l78 8v45q0 41 -21 61t-74 20q-46 0 -70 -15t-24 -41v-26h-71q-3 16 -3 33q0 52 45 83.5t127 31.5q171 0 171 -146v-320zM120 123q0 -69 80 -69q74 0 126 56v109l-75 -9q-131 -18 -131 -87z
M278 696h86l-87 -156h-75z" />
    <glyph glyph-name="acircumflex" unicode="&#xe2;" horiz-adv-x="469" 
d="M406 0h-76v56q-56 -66 -153 -66q-65 0 -101.5 34t-36.5 95q0 125 209 147l78 8v45q0 41 -21 61t-74 20q-46 0 -70 -15t-24 -41v-26h-71q-3 16 -3 33q0 52 45 83.5t127 31.5q171 0 171 -146v-320zM120 123q0 -69 80 -69q74 0 126 56v109l-75 -9q-131 -18 -131 -87z
M201 696h81l102 -156h-74l-69 101l-67 -101h-74z" />
    <glyph glyph-name="atilde" unicode="&#xe3;" horiz-adv-x="470" 
d="M406 0h-76v56q-56 -66 -153 -66q-65 0 -101.5 34t-36.5 95q0 125 209 147l78 8v45q0 41 -21 61t-74 20q-46 0 -70 -15t-24 -41v-26h-71q-3 16 -3 33q0 52 45 83.5t127 31.5q171 0 171 -146v-320zM120 123q0 -69 80 -69q74 0 126 56v109l-75 -9q-131 -18 -131 -87z
M382 635l-6 -63q-33 26 -64 26q-22 0 -67 -19.5t-75 -19.5q-42 0 -67 25l6 61q24 -24 61 -24q24 0 67 19t75 19q36 0 70 -24z" />
    <glyph glyph-name="adieresis" unicode="&#xe4;" horiz-adv-x="470" 
d="M406 0h-76v56q-56 -66 -153 -66q-65 0 -101.5 34t-36.5 95q0 125 209 147l78 8v45q0 41 -21 61t-74 20q-46 0 -70 -15t-24 -41v-26h-71q-3 16 -3 33q0 52 45 83.5t127 31.5q171 0 171 -146v-320zM120 123q0 -69 80 -69q74 0 126 56v109l-75 -9q-131 -18 -131 -87z
M150 557q-56 0 -56 54q0 28 15.5 42t40.5 14q24 0 40 -14t16 -42q0 -27 -16 -40.5t-40 -13.5zM333 557q-55 0 -55 54q0 56 55 56q24 0 40 -14t16 -42q0 -27 -16 -40.5t-40 -13.5z" />
    <glyph glyph-name="aring" unicode="&#xe5;" horiz-adv-x="470" 
d="M406 0h-76v56q-56 -66 -153 -66q-65 0 -101.5 34t-36.5 95q0 125 209 147l78 8v45q0 41 -21 61t-74 20q-46 0 -70 -15t-24 -41v-26h-71q-3 16 -3 33q0 52 45 83.5t127 31.5q171 0 171 -146v-320zM120 123q0 -69 80 -69q74 0 126 56v109l-75 -9q-131 -18 -131 -87z
M138 622q0 41 28 68t75 27q49 0 77.5 -27t28.5 -68q0 -40 -28.5 -67.5t-77.5 -27.5q-47 0 -75 27.5t-28 67.5zM191 622q0 -21 13.5 -34.5t36.5 -13.5q25 0 39 13.5t14 34.5q0 22 -14 35.5t-39 13.5q-23 0 -36.5 -13.5t-13.5 -35.5z" />
    <glyph glyph-name="ae" unicode="&#xe6;" horiz-adv-x="753" 
d="M535 59q73 0 125 49l40 -54q-24 -27 -69 -45.5t-96 -18.5q-118 0 -167 81q-68 -81 -182 -81q-71 0 -109.5 34t-38.5 95q0 125 210 147l78 8v45q0 41 -21.5 61t-73.5 20q-47 0 -71 -15t-24 -41v-26h-71q-2 22 -2 33q0 52 44.5 83.5t127.5 31.5q111 0 147 -70q49 70 145 70
q90 0 136.5 -56t46.5 -136q0 -38 -7 -71h-296q3 -144 128 -144zM120 123q0 -69 80 -69q74 0 126 56v109l-76 -9q-130 -18 -130 -87zM408 264h224q2 12 2 20q0 52 -28.5 83.5t-78.5 31.5q-112 0 -119 -135z" />
    <glyph glyph-name="ccedilla" unicode="&#xe7;" horiz-adv-x="448" 
d="M45 227q0 107 50 173t152 66q122 0 170 -93l-58 -40q-36 61 -107 61q-65 0 -95.5 -45t-30.5 -122t30.5 -121.5t95.5 -44.5q72 0 107 62l58 -41q-44 -83 -150 -91l-17 -45q92 0 92 -81q0 -34 -27.5 -57.5t-75.5 -23.5q-43 0 -87 22v58q38 -28 82 -28q19 0 30 8t11 21
q0 34 -54 34h-36l-4 6l30 88q-83 11 -124.5 74t-41.5 160z" />
    <glyph glyph-name="egrave" unicode="&#xe8;" horiz-adv-x="471" 
d="M254 59q74 0 124 49l40 -54q-24 -26 -69 -45t-95 -19q-108 0 -158.5 64t-50.5 175q0 104 51 170.5t149 66.5q90 0 136.5 -56t46.5 -136q0 -33 -6 -71h-297q3 -144 129 -144zM126 264h224q2 12 2 20q0 52 -28.5 83.5t-78.5 31.5q-110 0 -119 -135zM132 696h86l76 -156h-75
z" />
    <glyph glyph-name="eacute" unicode="&#xe9;" horiz-adv-x="471" 
d="M254 59q74 0 124 49l40 -54q-24 -26 -69 -45t-95 -19q-108 0 -158.5 64t-50.5 175q0 104 51 170.5t149 66.5q90 0 136.5 -56t46.5 -136q0 -33 -6 -71h-297q3 -144 129 -144zM126 264h224q2 12 2 20q0 52 -28.5 83.5t-78.5 31.5q-110 0 -119 -135zM279 696h86l-87 -156
h-75z" />
    <glyph glyph-name="ecircumflex" unicode="&#xea;" horiz-adv-x="471" 
d="M254 59q74 0 124 49l40 -54q-24 -26 -69 -45t-95 -19q-108 0 -158.5 64t-50.5 175q0 104 51 170.5t149 66.5q90 0 136.5 -56t46.5 -136q0 -33 -6 -71h-297q3 -144 129 -144zM126 264h224q2 12 2 20q0 52 -28.5 83.5t-78.5 31.5q-110 0 -119 -135zM205 696h81l102 -156
h-74l-69 101l-67 -101h-74z" />
    <glyph glyph-name="edieresis" unicode="&#xeb;" horiz-adv-x="471" 
d="M254 59q74 0 124 49l40 -54q-24 -26 -69 -45t-95 -19q-108 0 -158.5 64t-50.5 175q0 104 51 170.5t149 66.5q90 0 136.5 -56t46.5 -136q0 -33 -6 -71h-297q3 -144 129 -144zM126 264h224q2 12 2 20q0 52 -28.5 83.5t-78.5 31.5q-110 0 -119 -135zM156 557q-56 0 -56 54
q0 28 15.5 42t40.5 14q24 0 40 -14t16 -42q0 -27 -16 -40.5t-40 -13.5zM339 557q-55 0 -55 54q0 56 55 56q24 0 40 -14t16 -42q0 -27 -16 -40.5t-40 -13.5z" />
    <glyph glyph-name="igrave" unicode="&#xec;" horiz-adv-x="216" 
d="M68 0v456h80v-456h-80zM-11 696h86l76 -156h-75z" />
    <glyph glyph-name="iacute" unicode="&#xed;" horiz-adv-x="216" 
d="M68 0v456h80v-456h-80zM141 696h86l-87 -156h-75z" />
    <glyph glyph-name="icircumflex" unicode="&#xee;" horiz-adv-x="216" 
d="M68 0v456h80v-456h-80zM68 696h81l102 -156h-74l-69 101l-67 -101h-74z" />
    <glyph glyph-name="idieresis" unicode="&#xef;" horiz-adv-x="216" 
d="M68 0v456h80v-456h-80zM16 557q-56 0 -56 54q0 28 15.5 42t40.5 14q24 0 40 -14t16 -42q0 -27 -16 -40.5t-40 -13.5zM199 557q-55 0 -55 54q0 56 55 56q24 0 40 -14t16 -42q0 -27 -16 -40.5t-40 -13.5z" />
    <glyph glyph-name="eth" unicode="&#xf0;" horiz-adv-x="525" 
d="M219 690h102q39 -34 67 -75l61 28l23 -52l-55 -26q57 -112 57 -251q0 -68 -11.5 -124t-36 -102.5t-68.5 -72t-104 -25.5q-103 0 -156 62.5t-53 166.5q0 103 51 165.5t142 62.5q110 0 157 -97q-1 96 -48 183l-81 -37l-23 54l74 33q-42 60 -98 107zM254 61q128 0 136 200
q-46 111 -140 111q-63 0 -94.5 -42t-31.5 -113q0 -69 31.5 -112.5t98.5 -43.5z" />
    <glyph glyph-name="ntilde" unicode="&#xf1;" horiz-adv-x="518" 
d="M67 0v456h78v-55q21 29 61 47t89 18q83 0 121.5 -44t38.5 -131v-291h-80v284q0 55 -23.5 81.5t-80.5 26.5q-80 0 -124 -53v-339h-80zM403 635l-6 -63q-33 26 -64 26q-22 0 -67 -19.5t-75 -19.5q-42 0 -67 25l6 61q24 -24 61 -24q23 0 66 19t76 19q36 0 70 -24z" />
    <glyph glyph-name="ograve" unicode="&#xf2;" horiz-adv-x="500" 
d="M251 466q103 0 154 -64.5t51 -172.5q0 -110 -51 -174.5t-157 -64.5q-100 0 -151.5 65t-51.5 173t51 173t155 65zM249 63q125 0 125 165t-125 165q-123 0 -123 -164q0 -166 123 -166zM136 696h86l76 -156h-75z" />
    <glyph glyph-name="oacute" unicode="&#xf3;" horiz-adv-x="500" 
d="M251 466q103 0 154 -64.5t51 -172.5q0 -110 -51 -174.5t-157 -64.5q-100 0 -151.5 65t-51.5 173t51 173t155 65zM249 63q125 0 125 165t-125 165q-123 0 -123 -164q0 -166 123 -166zM283 696h86l-87 -156h-75z" />
    <glyph glyph-name="ocircumflex" unicode="&#xf4;" horiz-adv-x="500" 
d="M251 466q103 0 154 -64.5t51 -172.5q0 -110 -51 -174.5t-157 -64.5q-100 0 -151.5 65t-51.5 173t51 173t155 65zM249 63q125 0 125 165t-125 165q-123 0 -123 -164q0 -166 123 -166zM210 696h81l102 -156h-74l-69 101l-67 -101h-74z" />
    <glyph glyph-name="otilde" unicode="&#xf5;" horiz-adv-x="500" 
d="M251 466q103 0 154 -64.5t51 -172.5q0 -110 -51 -174.5t-157 -64.5q-100 0 -151.5 65t-51.5 173t51 173t155 65zM249 63q125 0 125 165t-125 165q-123 0 -123 -164q0 -166 123 -166zM392 635l-6 -63q-33 26 -64 26q-22 0 -67 -19.5t-75 -19.5q-42 0 -67 25l6 61
q24 -24 61 -24q24 0 67 19t75 19q36 0 70 -24z" />
    <glyph glyph-name="odieresis" unicode="&#xf6;" horiz-adv-x="500" 
d="M251 466q103 0 154 -64.5t51 -172.5q0 -110 -51 -174.5t-157 -64.5q-100 0 -151.5 65t-51.5 173t51 173t155 65zM249 63q125 0 125 165t-125 165q-123 0 -123 -164q0 -166 123 -166zM160 557q-56 0 -56 54q0 28 15.5 42t40.5 14q24 0 40 -14t16 -42q0 -27 -16 -40.5
t-40 -13.5zM343 557q-55 0 -55 54q0 56 55 56q24 0 40 -14t16 -42q0 -27 -16 -40.5t-40 -13.5z" />
    <glyph glyph-name="divide" unicode="&#xf7;" 
d="M48 235v70h463v-70h-463zM282 30q-26 0 -43.5 16.5t-17.5 41.5t17.5 42t43.5 17t43.5 -17t17.5 -42t-17.5 -41.5t-43.5 -16.5zM282 390q-26 0 -43.5 17t-17.5 43t17.5 42.5t43.5 16.5t43.5 -16.5t17.5 -42.5t-17.5 -43t-43.5 -17z" />
    <glyph glyph-name="oslash" unicode="&#xf8;" horiz-adv-x="500" 
d="M251 466q72 0 121 -35l19 25h69l-49 -63q45 -61 45 -164q0 -110 -51 -174.5t-157 -64.5q-73 0 -119 34l-19 -24h-67l47 62q-45 61 -45 166q0 108 51 173t155 65zM126 229q0 -60 16 -99l183 240q-29 23 -76 23q-123 0 -123 -164zM249 63q125 0 125 165q0 58 -16 96
l-183 -239q30 -22 74 -22z" />
    <glyph glyph-name="ugrave" unicode="&#xf9;" horiz-adv-x="518" 
d="M141 696h86l76 -156h-75zM451 456v-456h-78v55q-21 -29 -61 -47t-89 -18q-83 0 -121.5 44t-38.5 131v291h80v-284q0 -55 23.5 -81.5t80.5 -26.5q80 0 124 53v339h80z" />
    <glyph glyph-name="uacute" unicode="&#xfa;" horiz-adv-x="518" 
d="M294 696h86l-87 -156h-75zM451 456v-456h-78v55q-21 -29 -61 -47t-89 -18q-83 0 -121.5 44t-38.5 131v291h80v-284q0 -55 23.5 -81.5t80.5 -26.5q80 0 124 53v339h80z" />
    <glyph glyph-name="ucircumflex" unicode="&#xfb;" horiz-adv-x="518" 
d="M215 696h81l102 -156h-74l-69 101l-67 -101h-74zM451 456v-456h-78v55q-21 -29 -61 -47t-89 -18q-83 0 -121.5 44t-38.5 131v291h80v-284q0 -55 23.5 -81.5t80.5 -26.5q80 0 124 53v339h80z" />
    <glyph glyph-name="udieresis" unicode="&#xfc;" horiz-adv-x="518" 
d="M167 557q-56 0 -56 54q0 28 15.5 42t40.5 14q24 0 40 -14t16 -42q0 -27 -16 -40.5t-40 -13.5zM350 557q-55 0 -55 54q0 56 55 56q24 0 40 -14t16 -42q0 -27 -16 -40.5t-40 -13.5zM451 456v-456h-78v55q-21 -29 -61 -47t-89 -18q-83 0 -121.5 44t-38.5 131v291h80v-284
q0 -55 23.5 -81.5t80.5 -26.5q80 0 124 53v339h80z" />
    <glyph glyph-name="yacute" unicode="&#xfd;" horiz-adv-x="480" 
d="M105 456l143 -333l128 333h88l-277 -672h-84l104 245l-192 427h90zM285 696h86l-87 -156h-75z" />
    <glyph glyph-name="thorn" unicode="&#xfe;" horiz-adv-x="518" 
d="M148 42v-258h-80v892h80v-262q45 52 132 52q95 0 143.5 -63.5t48.5 -176.5q0 -112 -48.5 -174t-144.5 -62q-88 0 -131 52zM391 226q0 166 -129 166q-79 0 -114 -56v-218q38 -54 114 -54q70 0 99.5 42t29.5 120z" />
    <glyph glyph-name="ydieresis" unicode="&#xff;" horiz-adv-x="480" 
d="M105 456l143 -333l128 333h88l-277 -672h-84l104 245l-192 427h90zM154 557q-56 0 -56 54q0 28 15.5 42t40.5 14q24 0 40 -14t16 -42q0 -27 -16 -40.5t-40 -13.5zM337 557q-55 0 -55 54q0 56 55 56q24 0 40 -14t16 -42q0 -27 -16 -40.5t-40 -13.5z" />
    <glyph glyph-name="Amacron" unicode="&#x100;" horiz-adv-x="610" 
d="M506 0l-61 178h-280l-61 -178h-92l242 676h102l244 -676h-94zM306 588l-118 -338h234zM165 845h281v-66h-281v66z" />
    <glyph glyph-name="amacron" unicode="&#x101;" horiz-adv-x="470" 
d="M406 0h-76v56q-56 -66 -153 -66q-65 0 -101.5 34t-36.5 95q0 125 209 147l78 8v45q0 41 -21 61t-74 20q-46 0 -70 -15t-24 -41v-26h-71q-3 16 -3 33q0 52 45 83.5t127 31.5q171 0 171 -146v-320zM120 123q0 -69 80 -69q74 0 126 56v109l-75 -9q-131 -18 -131 -87z
M100 641h281v-66h-281v66z" />
    <glyph glyph-name="Abreve" unicode="&#x102;" horiz-adv-x="610" 
d="M506 0l-61 178h-280l-61 -178h-92l242 676h102l244 -676h-94zM306 588l-118 -338h234zM386 887h58q0 -61 -37.5 -99.5t-101.5 -38.5q-62 0 -99 38.5t-37 99.5h56q2 -34 23.5 -55.5t56.5 -21.5q36 0 57.5 21.5t23.5 55.5z" />
    <glyph glyph-name="abreve" unicode="&#x103;" horiz-adv-x="470" 
d="M406 0h-76v56q-56 -66 -153 -66q-65 0 -101.5 34t-36.5 95q0 125 209 147l78 8v45q0 41 -21 61t-74 20q-46 0 -70 -15t-24 -41v-26h-71q-3 16 -3 33q0 52 45 83.5t127 31.5q171 0 171 -146v-320zM120 123q0 -69 80 -69q74 0 126 56v109l-75 -9q-131 -18 -131 -87z
M321 683h58q0 -61 -37.5 -99.5t-101.5 -38.5q-62 0 -99 38.5t-37 99.5h56q2 -34 23.5 -55.5t56.5 -21.5q36 0 57.5 21.5t23.5 55.5z" />
    <glyph glyph-name="Aogonek" unicode="&#x104;" horiz-adv-x="610" 
d="M600 0l-75 -58q-33 -27 -33 -54q0 -16 12 -27.5t32 -11.5q29 0 64 26v-69q-40 -22 -83 -22q-49 0 -77.5 24.5t-28.5 65.5q0 53 54 96l40 32l-60 176h-280l-61 -178h-92l242 676h102zM306 588l-118 -338h234z" />
    <glyph glyph-name="aogonek" unicode="&#x105;" horiz-adv-x="469" 
d="M406 0h-1l-70 -53q-29 -22 -29 -52q0 -14 10 -23t27 -9q29 0 57 17l7 -57q-35 -16 -61 -17q-13 -1 -35 1q-82 10 -82 76q0 52 51 88l50 36v49q-56 -66 -153 -66q-65 0 -101.5 34t-36.5 95q0 125 209 147l78 8v45q0 41 -21 61t-74 20q-46 0 -70 -15t-24 -41v-26h-71
q-3 16 -3 33q0 52 45 83.5t127 31.5q171 0 171 -146v-320zM120 123q0 -69 80 -69q74 0 126 56v109l-75 -9q-131 -18 -131 -87z" />
    <glyph glyph-name="Cacute" unicode="&#x106;" horiz-adv-x="585" 
d="M141 337q0 -126 46.5 -199t145.5 -73q49 0 89.5 23t60.5 63l67 -43q-29 -54 -86 -86t-133 -32q-139 0 -208.5 91t-69.5 256q0 166 69.5 257.5t208.5 91.5q76 0 133 -32t86 -86l-67 -43q-20 40 -60.5 63t-89.5 23q-100 0 -146 -73t-46 -201zM364 900h86l-87 -156h-75z" />
    <glyph glyph-name="cacute" unicode="&#x107;" horiz-adv-x="447" 
d="M45 227q0 107 50 173t152 66q122 0 170 -93l-58 -40q-36 61 -107 61q-65 0 -95.5 -45t-30.5 -122t30.5 -121.5t95.5 -44.5q72 0 107 62l58 -41q-49 -92 -170 -92q-102 0 -152 65t-50 172zM285 696h86l-87 -156h-75z" />
    <glyph glyph-name="Ccircumflex" unicode="&#x108;" horiz-adv-x="585" 
d="M141 337q0 -126 46.5 -199t145.5 -73q49 0 89.5 23t60.5 63l67 -43q-29 -54 -86 -86t-133 -32q-139 0 -208.5 91t-69.5 256q0 166 69.5 257.5t208.5 91.5q76 0 133 -32t86 -86l-67 -43q-20 40 -60.5 63t-89.5 23q-100 0 -146 -73t-46 -201zM288 900h81l102 -156h-74
l-69 101l-67 -101h-74z" />
    <glyph glyph-name="ccircumflex" unicode="&#x109;" horiz-adv-x="447" 
d="M45 227q0 107 50 173t152 66q122 0 170 -93l-58 -40q-36 61 -107 61q-65 0 -95.5 -45t-30.5 -122t30.5 -121.5t95.5 -44.5q72 0 107 62l58 -41q-49 -92 -170 -92q-102 0 -152 65t-50 172zM211 696h81l102 -156h-74l-69 101l-67 -101h-74z" />
    <glyph glyph-name="Cdotaccent" unicode="&#x10a;" horiz-adv-x="585" 
d="M141 337q0 -126 46.5 -199t145.5 -73q49 0 89.5 23t60.5 63l67 -43q-29 -54 -86 -86t-133 -32q-139 0 -208.5 91t-69.5 256q0 166 69.5 257.5t208.5 91.5q76 0 133 -32t86 -86l-67 -43q-20 40 -60.5 63t-89.5 23q-100 0 -146 -73t-46 -201zM329 761q-56 0 -56 54
q0 28 15.5 42t40.5 14q23 0 39.5 -14.5t16.5 -41.5t-16.5 -40.5t-39.5 -13.5z" />
    <glyph glyph-name="cdotaccent" unicode="&#x10b;" horiz-adv-x="447" 
d="M45 227q0 107 50 173t152 66q122 0 170 -93l-58 -40q-36 61 -107 61q-65 0 -95.5 -45t-30.5 -122t30.5 -121.5t95.5 -44.5q72 0 107 62l58 -41q-49 -92 -170 -92q-102 0 -152 65t-50 172zM254 557q-56 0 -56 54q0 28 15.5 42t40.5 14q23 0 39.5 -14.5t16.5 -41.5
t-16.5 -40.5t-39.5 -13.5z" />
    <glyph glyph-name="Ccaron" unicode="&#x10c;" horiz-adv-x="585" 
d="M141 337q0 -126 46.5 -199t145.5 -73q49 0 89.5 23t60.5 63l67 -43q-29 -54 -86 -86t-133 -32q-139 0 -208.5 91t-69.5 256q0 166 69.5 257.5t208.5 91.5q76 0 133 -32t86 -86l-67 -43q-20 40 -60.5 63t-89.5 23q-100 0 -146 -73t-46 -201zM368 744h-81l-101 156h74
l68 -101l68 101h74z" />
    <glyph glyph-name="ccaron" unicode="&#x10d;" horiz-adv-x="447" 
d="M45 227q0 107 50 173t152 66q122 0 170 -93l-58 -40q-36 61 -107 61q-65 0 -95.5 -45t-30.5 -122t30.5 -121.5t95.5 -44.5q72 0 107 62l58 -41q-49 -92 -170 -92q-102 0 -152 65t-50 172zM292 540h-81l-101 156h74l68 -101l68 101h74z" />
    <glyph glyph-name="Dcaron" unicode="&#x10e;" horiz-adv-x="649" 
d="M82 0v676h191q174 0 248.5 -79t74.5 -259q0 -179 -75 -258.5t-248 -79.5h-191zM168 73h101q136 0 187 58.5t51 206.5q0 146 -51.5 205.5t-186.5 59.5h-101v-530zM338 744h-81l-101 156h74l68 -101l68 101h74z" />
    <glyph glyph-name="dcaron" unicode="&#x10f;" horiz-adv-x="517" 
d="M369 413v277h79v-690h-77v43q-46 -53 -134 -53q-95 0 -143.5 63t-48.5 176q0 112 48.5 174.5t144.5 62.5q86 0 131 -53zM127 229q0 -165 128 -165q79 0 114 55v218q-41 55 -114 55q-128 0 -128 -163zM612 690l-54 -148h-62l25 148h91z" />
    <glyph glyph-name="Dcroat" unicode="&#x110;" horiz-adv-x="656" 
d="M22 377h67v299h191q174 0 248.5 -79t74.5 -259q0 -179 -75 -258.5t-248 -79.5h-191v314h-67v63zM175 73h101q136 0 187 58.5t51 206.5q0 146 -51.5 205.5t-186.5 59.5h-101v-226h115v-63h-115v-241z" />
    <glyph glyph-name="dcroat" unicode="&#x111;" horiz-adv-x="517" 
d="M265 593h104v97h79v-97h68v-63h-68v-530h-77v43q-46 -53 -134 -53q-95 0 -143.5 63t-48.5 176q0 112 48.5 174.5t144.5 62.5q86 0 131 -53v117h-104v63zM127 229q0 -165 128 -165q79 0 114 55v218q-41 55 -114 55q-128 0 -128 -163z" />
    <glyph glyph-name="Emacron" unicode="&#x112;" horiz-adv-x="539" 
d="M168 73h324v-73h-410v676h406v-73h-320v-221h284v-73h-284v-236zM145 845h281v-66h-281v66z" />
    <glyph glyph-name="emacron" unicode="&#x113;" horiz-adv-x="471" 
d="M254 59q74 0 124 49l40 -54q-24 -26 -69 -45t-95 -19q-108 0 -158.5 64t-50.5 175q0 104 51 170.5t149 66.5q90 0 136.5 -56t46.5 -136q0 -33 -6 -71h-297q3 -144 129 -144zM126 264h224q2 12 2 20q0 52 -28.5 83.5t-78.5 31.5q-110 0 -119 -135zM108 641h281v-66h-281
v66z" />
    <glyph glyph-name="Ebreve" unicode="&#x114;" horiz-adv-x="539" 
d="M168 73h324v-73h-410v676h406v-73h-320v-221h284v-73h-284v-236zM366 887h58q0 -61 -37.5 -99.5t-101.5 -38.5q-62 0 -99 38.5t-37 99.5h56q2 -34 23.5 -55.5t56.5 -21.5q36 0 57.5 21.5t23.5 55.5z" />
    <glyph glyph-name="ebreve" unicode="&#x115;" horiz-adv-x="471" 
d="M254 59q74 0 124 49l40 -54q-24 -26 -69 -45t-95 -19q-108 0 -158.5 64t-50.5 175q0 104 51 170.5t149 66.5q90 0 136.5 -56t46.5 -136q0 -33 -6 -71h-297q3 -144 129 -144zM126 264h224q2 12 2 20q0 52 -28.5 83.5t-78.5 31.5q-110 0 -119 -135zM325 683h58
q0 -61 -37.5 -99.5t-101.5 -38.5q-62 0 -99 38.5t-37 99.5h56q2 -34 23.5 -55.5t56.5 -21.5q36 0 57.5 21.5t23.5 55.5z" />
    <glyph glyph-name="Edotaccent" unicode="&#x116;" horiz-adv-x="539" 
d="M168 73h324v-73h-410v676h406v-73h-320v-221h284v-73h-284v-236zM286 761q-56 0 -56 54q0 28 15.5 42t40.5 14q23 0 39.5 -14.5t16.5 -41.5t-16.5 -40.5t-39.5 -13.5z" />
    <glyph glyph-name="edotaccent" unicode="&#x117;" horiz-adv-x="471" 
d="M254 59q74 0 124 49l40 -54q-24 -26 -69 -45t-95 -19q-108 0 -158.5 64t-50.5 175q0 104 51 170.5t149 66.5q90 0 136.5 -56t46.5 -136q0 -33 -6 -71h-297q3 -144 129 -144zM126 264h224q2 12 2 20q0 52 -28.5 83.5t-78.5 31.5q-110 0 -119 -135zM252 557q-56 0 -56 54
q0 28 15.5 42t40.5 14q23 0 39.5 -14.5t16.5 -41.5t-16.5 -40.5t-39.5 -13.5z" />
    <glyph glyph-name="Eogonek" unicode="&#x118;" horiz-adv-x="538" 
d="M168 73h324v-73h-1l-75 -58q-33 -27 -33 -54q0 -16 11.5 -27.5t32.5 -11.5q29 0 64 26v-69q-40 -22 -83 -22q-49 0 -77.5 24.5t-28.5 65.5q0 53 54 96l37 30h-311v676h406v-73h-320v-221h284v-73h-284v-236z" />
    <glyph glyph-name="eogonek" unicode="&#x119;" horiz-adv-x="471" 
d="M254 59q74 0 124 49l40 -54l-86 -94q-40 -41 -40 -72q0 -16 11.5 -27.5t32.5 -11.5q28 0 63 26v-69q-40 -22 -83 -22q-49 0 -77.5 24.5t-28.5 65.5q0 48 63 110l7 8q-18 -2 -26 -2q-108 0 -158.5 64t-50.5 175q0 104 51 170.5t149 66.5q90 0 136.5 -56t46.5 -136
q0 -33 -6 -71h-297q3 -144 129 -144zM126 264h224q2 12 2 20q0 52 -28.5 83.5t-78.5 31.5q-110 0 -119 -135z" />
    <glyph glyph-name="Ecaron" unicode="&#x11a;" horiz-adv-x="539" 
d="M168 73h324v-73h-410v676h406v-73h-320v-221h284v-73h-284v-236zM326 744h-81l-101 156h74l68 -101l68 101h74z" />
    <glyph glyph-name="ecaron" unicode="&#x11b;" horiz-adv-x="471" 
d="M254 59q74 0 124 49l40 -54q-24 -26 -69 -45t-95 -19q-108 0 -158.5 64t-50.5 175q0 104 51 170.5t149 66.5q90 0 136.5 -56t46.5 -136q0 -33 -6 -71h-297q3 -144 129 -144zM126 264h224q2 12 2 20q0 52 -28.5 83.5t-78.5 31.5q-110 0 -119 -135zM288 540h-81l-101 156
h74l68 -101l68 101h74z" />
    <glyph glyph-name="Gcircumflex" unicode="&#x11c;" horiz-adv-x="640" 
d="M342 287v74h251q4 -30 4 -49q0 -145 -62.5 -233.5t-198.5 -88.5q-141 0 -212 88.5t-71 259.5q0 348 295 348q151 0 214 -114l-65 -44q-52 83 -152 83q-110 0 -157 -71t-47 -202q0 -137 46 -205.5t148 -68.5q92 0 133.5 60.5t41.5 162.5h-168zM303 900h81l102 -156h-74
l-69 101l-67 -101h-74z" />
    <glyph glyph-name="gcircumflex" unicode="&#x11d;" horiz-adv-x="512" 
d="M368 456h77v-491q0 -73 -52 -121t-139 -48q-85 0 -132 40t-47 98h72q0 -28 29.5 -50t77.5 -22q52 0 81.5 28t29.5 72v85q-47 -57 -125 -57q-98 0 -146.5 63t-48.5 175t49 175t145 63q82 0 129 -54v44zM127 228q0 -164 127 -164q72 0 111 55v218q-39 55 -111 55
q-69 0 -98 -43t-29 -121zM221 696h81l102 -156h-74l-69 101l-67 -101h-74z" />
    <glyph glyph-name="Gbreve" unicode="&#x11e;" horiz-adv-x="640" 
d="M342 287v74h251q4 -30 4 -49q0 -145 -62.5 -233.5t-198.5 -88.5q-141 0 -212 88.5t-71 259.5q0 348 295 348q151 0 214 -114l-65 -44q-52 83 -152 83q-110 0 -157 -71t-47 -202q0 -137 46 -205.5t148 -68.5q92 0 133.5 60.5t41.5 162.5h-168zM423 887h58
q0 -61 -37.5 -99.5t-101.5 -38.5q-62 0 -99 38.5t-37 99.5h56q2 -34 23.5 -55.5t56.5 -21.5q36 0 57.5 21.5t23.5 55.5z" />
    <glyph glyph-name="gbreve" unicode="&#x11f;" horiz-adv-x="512" 
d="M368 456h77v-491q0 -73 -52 -121t-139 -48q-85 0 -132 40t-47 98h72q0 -28 29.5 -50t77.5 -22q52 0 81.5 28t29.5 72v85q-47 -57 -125 -57q-98 0 -146.5 63t-48.5 175t49 175t145 63q82 0 129 -54v44zM127 228q0 -164 127 -164q72 0 111 55v218q-39 55 -111 55
q-69 0 -98 -43t-29 -121zM338 683h58q0 -61 -37.5 -99.5t-101.5 -38.5q-62 0 -99 38.5t-37 99.5h56q2 -34 23.5 -55.5t56.5 -21.5q36 0 57.5 21.5t23.5 55.5z" />
    <glyph glyph-name="Gdotaccent" unicode="&#x120;" horiz-adv-x="640" 
d="M342 287v74h251q4 -30 4 -49q0 -145 -62.5 -233.5t-198.5 -88.5q-141 0 -212 88.5t-71 259.5q0 348 295 348q151 0 214 -114l-65 -44q-52 83 -152 83q-110 0 -157 -71t-47 -202q0 -137 46 -205.5t148 -68.5q92 0 133.5 60.5t41.5 162.5h-168zM343 761q-56 0 -56 54
q0 28 15.5 42t40.5 14q23 0 39.5 -14.5t16.5 -41.5t-16.5 -40.5t-39.5 -13.5z" />
    <glyph glyph-name="gdotaccent" unicode="&#x121;" horiz-adv-x="512" 
d="M368 456h77v-491q0 -73 -52 -121t-139 -48q-85 0 -132 40t-47 98h72q0 -28 29.5 -50t77.5 -22q52 0 81.5 28t29.5 72v85q-47 -57 -125 -57q-98 0 -146.5 63t-48.5 175t49 175t145 63q82 0 129 -54v44zM127 228q0 -164 127 -164q72 0 111 55v218q-39 55 -111 55
q-69 0 -98 -43t-29 -121zM261 557q-56 0 -56 54q0 28 15.5 42t40.5 14q23 0 39.5 -14.5t16.5 -41.5t-16.5 -40.5t-39.5 -13.5z" />
    <glyph glyph-name="Gcommaaccent" unicode="&#x122;" horiz-adv-x="640" 
d="M342 287v74h251q4 -30 4 -49q0 -145 -62.5 -233.5t-198.5 -88.5q-141 0 -212 88.5t-71 259.5q0 348 295 348q151 0 214 -114l-65 -44q-52 83 -152 83q-110 0 -157 -71t-47 -202q0 -137 46 -205.5t148 -68.5q92 0 133.5 60.5t41.5 162.5h-168zM393 -68l-54 -148h-62
l25 148h91z" />
    <glyph glyph-name="gcommaaccent" unicode="&#x123;" horiz-adv-x="512" 
d="M368 456h77v-491q0 -73 -52 -121t-139 -48q-85 0 -132 40t-47 98h72q0 -28 29.5 -50t77.5 -22q52 0 81.5 28t29.5 72v85q-47 -57 -125 -57q-98 0 -146.5 63t-48.5 175t49 175t145 63q82 0 129 -54v44zM127 228q0 -164 127 -164q72 0 111 55v218q-39 55 -111 55
q-69 0 -98 -43t-29 -121zM216 552l54 176h63l-25 -176h-92z" />
    <glyph glyph-name="Hcircumflex" unicode="&#x124;" horiz-adv-x="675" 
d="M507 391v285h86v-676h-86v318h-339v-318h-86v676h86v-285h339zM297 900h81l102 -156h-74l-69 101l-67 -101h-74z" />
    <glyph glyph-name="hcircumflex" unicode="&#x125;" horiz-adv-x="519" 
d="M68 0v690h80v-284q21 26 60.5 43t86.5 17q83 0 121.5 -44t38.5 -131v-291h-79v284q0 55 -24 81.5t-81 26.5q-38 0 -71 -15t-52 -38v-339h-80zM228 889h81l102 -156h-74l-69 101l-67 -101h-74z" />
    <glyph glyph-name="Hbar" unicode="&#x126;" horiz-adv-x="676" 
d="M34 568h48v108h86v-108h339v108h86v-108h53v-61h-53v-507h-86v318h-339v-318h-86v507h-48v61zM507 391v116h-339v-116h339z" />
    <glyph glyph-name="hbar" unicode="&#x127;" horiz-adv-x="519" 
d="M7 593h61v97h80v-97h110v-63h-110v-124q21 26 60.5 43t86.5 17q83 0 121.5 -44t38.5 -131v-291h-79v284q0 55 -24 81.5t-81 26.5q-38 0 -71 -15t-52 -38v-339h-80v530h-61v63z" />
    <glyph glyph-name="Itilde" unicode="&#x128;" horiz-adv-x="249" 
d="M82 0v676h86v-676h-86zM264 839l-6 -63q-33 26 -64 26q-22 0 -67 -19.5t-75 -19.5q-42 0 -67 25l6 61q24 -24 61 -24q24 0 67 19t75 19q36 0 70 -24z" />
    <glyph glyph-name="itilde" unicode="&#x129;" horiz-adv-x="216" 
d="M68 0v456h80v-456h-80zM246 635l-6 -63q-33 26 -64 26q-22 0 -67 -19.5t-75 -19.5q-42 0 -67 25l6 61q24 -24 61 -24q24 0 67 19t75 19q36 0 70 -24z" />
    <glyph glyph-name="Imacron" unicode="&#x12a;" horiz-adv-x="249" 
d="M82 0v676h86v-676h-86zM-17 845h281v-66h-281v66z" />
    <glyph glyph-name="imacron" unicode="&#x12b;" horiz-adv-x="216" 
d="M68 0v456h80v-456h-80zM-34 641h281v-66h-281v66z" />
    <glyph glyph-name="Ibreve" unicode="&#x12c;" horiz-adv-x="249" 
d="M82 0v676h86v-676h-86zM204 887h58q0 -61 -37.5 -99.5t-101.5 -38.5q-62 0 -99 38.5t-37 99.5h56q2 -34 23.5 -55.5t56.5 -21.5q36 0 57.5 21.5t23.5 55.5z" />
    <glyph glyph-name="ibreve" unicode="&#x12d;" horiz-adv-x="216" 
d="M68 0v456h80v-456h-80zM187 683h58q0 -61 -37.5 -99.5t-101.5 -38.5q-62 0 -99 38.5t-37 99.5h56q2 -34 23.5 -55.5t56.5 -21.5q36 0 57.5 21.5t23.5 55.5z" />
    <glyph glyph-name="Iogonek" unicode="&#x12e;" horiz-adv-x="249" 
d="M168 0l-75 -58q-33 -27 -33 -54q0 -16 12 -27.5t32 -11.5q29 0 64 26v-69q-40 -22 -83 -22q-49 0 -77.5 24.5t-28.5 65.5q0 53 54 96l49 39v667h86v-676z" />
    <glyph glyph-name="iogonek" unicode="&#x12f;" horiz-adv-x="216" 
d="M149 0l-75 -58q-33 -27 -33 -54q0 -16 11.5 -27.5t32.5 -11.5q29 0 64 26v-69q-40 -22 -83 -22q-49 0 -77.5 24.5t-28.5 65.5q0 53 54 96l54 43v443h80v-456h1zM107 567q-56 0 -56 54q0 28 15.5 42t40.5 14q24 0 40 -14t16 -42q0 -27 -16 -40.5t-40 -13.5z" />
    <glyph glyph-name="Idotaccent" unicode="&#x130;" horiz-adv-x="249" 
d="M82 0v676h86v-676h-86zM124 761q-56 0 -56 54q0 28 15.5 42t40.5 14q23 0 39.5 -14.5t16.5 -41.5t-16.5 -40.5t-39.5 -13.5z" />
    <glyph glyph-name="dotlessi" unicode="&#x131;" horiz-adv-x="216" 
d="M68 0v456h80v-456h-80z" />
    <glyph glyph-name="IJ" unicode="&#x132;" horiz-adv-x="739" 
d="M82 0v676h86v-676h-86zM274 93l64 41q37 -69 113 -69q64 0 96 40t32 132v439h83v-441q0 -125 -55.5 -185t-155.5 -60q-125 0 -177 103z" />
    <glyph glyph-name="ij" unicode="&#x133;" horiz-adv-x="431" 
d="M67 0v456h80v-456h-80zM106 567q-56 0 -56 54q0 28 15.5 42t40.5 14q24 0 40 -14t16 -42q0 -27 -16 -40.5t-40 -13.5zM241 -226l-42 56q47 22 65 54t18 89v483h80v-471q0 -84 -29 -134t-92 -77zM322 567q-57 0 -57 54q0 28 16 42t41 14q23 0 39 -14.5t16 -41.5t-16 -40.5
t-39 -13.5z" />
    <glyph glyph-name="Jcircumflex" unicode="&#x134;" horiz-adv-x="487" 
d="M22 93l64 41q37 -69 113 -69q64 0 96 40t32 132v439h83v-441q0 -125 -55.5 -185t-155.5 -60q-125 0 -177 103zM330 900h81l102 -156h-74l-69 101l-67 -101h-74z" />
    <glyph glyph-name="jcircumflex" unicode="&#x135;" horiz-adv-x="217" 
d="M68 696h81l102 -156h-74l-69 101l-67 -101h-74zM27 -226l-43 56q48 22 66 54t18 89v483h80v-471q0 -84 -29 -134t-92 -77z" />
    <glyph glyph-name="Kcommaaccent" unicode="&#x136;" horiz-adv-x="605" 
d="M270 335l-102 -106v-229h-86v676h86v-336l313 336h107l-257 -280l256 -396h-103zM334 -68l-54 -148h-62l25 148h91z" />
    <glyph glyph-name="kcommaaccent" unicode="&#x137;" horiz-adv-x="471" 
d="M456 0h-92l-143 225l-73 -70v-155h-80v690h80v-439l211 205h102l-184 -176zM295 -68l-54 -148h-62l25 148h91z" />
    <glyph glyph-name="kgreenlandic" unicode="&#x138;" horiz-adv-x="472" 
d="M455 0h-91l-144 225l-73 -70v-155h-80v456h80v-205l212 205h101l-183 -176z" />
    <glyph glyph-name="Lacute" unicode="&#x139;" horiz-adv-x="476" 
d="M168 73h288v-73h-374v676h86v-603zM164 900h86l-87 -156h-75z" />
    <glyph glyph-name="lacute" unicode="&#x13a;" horiz-adv-x="233" 
d="M64 690h80v-561q0 -30 10 -43.5t36 -13.5h25v-74h-47q-57 0 -80.5 31t-23.5 91v570zM143 889h86l-87 -156h-75z" />
    <glyph glyph-name="Lcommaaccent" unicode="&#x13b;" horiz-adv-x="476" 
d="M168 73h288v-73h-374v676h86v-603zM315 -68l-54 -148h-62l25 148h91z" />
    <glyph glyph-name="lcommaaccent" unicode="&#x13c;" horiz-adv-x="233" 
d="M64 690h80v-561q0 -30 10 -43.5t36 -13.5h25v-74h-47q-57 0 -80.5 31t-23.5 91v570zM190 -68l-54 -148h-62l25 148h91z" />
    <glyph glyph-name="Lcaron" unicode="&#x13d;" horiz-adv-x="524" 
d="M168 73h288v-73h-374v676h86v-603zM506 676l-54 -148h-62l25 148h91z" />
    <glyph glyph-name="lcaron" unicode="&#x13e;" horiz-adv-x="234" 
d="M64 690h80v-561q0 -30 10 -43.5t36 -13.5h25v-74h-47q-57 0 -80.5 31t-23.5 91v570zM318 690l-54 -148h-62l25 148h91z" />
    <glyph glyph-name="Ldot" unicode="&#x13f;" horiz-adv-x="508" 
d="M168 73h288v-73h-374v676h86v-603zM384 311q-28 0 -46 18t-18 44q0 27 18 44.5t46 17.5q27 0 45 -17.5t18 -44.5q0 -26 -18 -44t-45 -18z" />
    <glyph glyph-name="ldot" unicode="&#x140;" horiz-adv-x="366" 
d="M64 690h80v-561q0 -30 10 -43.5t36 -13.5h25v-74h-47q-57 0 -80.5 31t-23.5 91v570zM288 304q-28 0 -46 18t-18 44q0 27 18 44.5t46 17.5q27 0 45 -17.5t18 -44.5q0 -26 -18 -44t-45 -18z" />
    <glyph glyph-name="Lslash" unicode="&#x141;" horiz-adv-x="497" 
d="M189 73h288v-73h-374v259l-81 -34v66l81 34v351h86v-314l90 39v-66l-90 -39v-223z" />
    <glyph glyph-name="lslash" unicode="&#x142;" horiz-adv-x="261" 
d="M238 375l-72 -32v-214q0 -30 10 -43.5t36 -13.5h25v-74h-47q-57 0 -80.5 31t-23.5 91v188l-62 -27v67l62 27v315h80v-280l72 32v-67z" />
    <glyph glyph-name="Nacute" unicode="&#x143;" horiz-adv-x="680" 
d="M512 139l1 537h85v-676h-90l-340 540v-540h-87l1 676h92zM376 900h86l-87 -156h-75z" />
    <glyph glyph-name="nacute" unicode="&#x144;" horiz-adv-x="518" 
d="M67 0v456h78v-55q21 29 61 47t89 18q83 0 121.5 -44t38.5 -131v-291h-80v284q0 55 -23.5 81.5t-80.5 26.5q-80 0 -124 -53v-339h-80zM307 696h86l-87 -156h-75z" />
    <glyph glyph-name="Ncommaaccent" unicode="&#x145;" horiz-adv-x="680" 
d="M512 139l1 537h85v-676h-90l-340 540v-540h-87l1 676h92zM392 -68l-54 -148h-62l25 148h91z" />
    <glyph glyph-name="ncommaaccent" unicode="&#x146;" horiz-adv-x="518" 
d="M67 0v456h78v-55q21 29 61 47t89 18q83 0 121.5 -44t38.5 -131v-291h-80v284q0 55 -23.5 81.5t-80.5 26.5q-80 0 -124 -53v-339h-80zM307 -68l-54 -148h-62l25 148h91z" />
    <glyph glyph-name="Ncaron" unicode="&#x147;" horiz-adv-x="680" 
d="M512 139l1 537h85v-676h-90l-340 540v-540h-87l1 676h92zM380 744h-81l-101 156h74l68 -101l68 101h74z" />
    <glyph glyph-name="ncaron" unicode="&#x148;" horiz-adv-x="518" 
d="M67 0v456h78v-55q21 29 61 47t89 18q83 0 121.5 -44t38.5 -131v-291h-80v284q0 55 -23.5 81.5t-80.5 26.5q-80 0 -124 -53v-339h-80zM303 540h-81l-101 156h74l68 -101l68 101h74z" />
    <glyph glyph-name="napostrophe" unicode="&#x149;" horiz-adv-x="519" 
d="M68 0v456h78v-55q21 29 61 47t89 18q83 0 121.5 -44t38.5 -131v-291h-80v284q0 55 -23.5 81.5t-80.5 26.5q-80 0 -124 -53v-339h-80zM96 696l-54 -148h-62l25 148h91z" />
    <glyph glyph-name="Eng" unicode="&#x14a;" horiz-adv-x="679" 
d="M475 -226l-45 59q46 21 63.5 52t17.5 88v19l-344 548v-540h-87l1 676h92l338 -537v537h86v-691q0 -84 -29 -134t-93 -77z" />
    <glyph glyph-name="eng" unicode="&#x14b;" horiz-adv-x="518" 
d="M67 0v456h78v-55q21 29 61 47t88 18q83 0 121.5 -44t38.5 -131v-306q0 -84 -28.5 -134t-91.5 -77l-43 56q48 22 66 54t18 89v311q0 55 -24 81.5t-81 26.5q-38 0 -71 -15t-52 -38v-339h-80z" />
    <glyph glyph-name="Omacron" unicode="&#x14c;" horiz-adv-x="656" 
d="M141 337q0 -131 42 -201.5t144 -70.5q104 0 146.5 70.5t42.5 201.5t-42.5 202.5t-145.5 71.5q-187 0 -187 -274zM604 337q0 -160 -67.5 -253.5t-209.5 -93.5t-208 93t-66 254q0 162 66 255.5t209 93.5t209.5 -94t66.5 -255zM188 845h281v-66h-281v66z" />
    <glyph glyph-name="omacron" unicode="&#x14d;" horiz-adv-x="500" 
d="M251 466q103 0 154 -64.5t51 -172.5q0 -110 -51 -174.5t-157 -64.5q-100 0 -151.5 65t-51.5 173t51 173t155 65zM249 63q125 0 125 165t-125 165q-123 0 -123 -164q0 -166 123 -166zM110 641h281v-66h-281v66z" />
    <glyph glyph-name="Obreve" unicode="&#x14e;" horiz-adv-x="656" 
d="M141 337q0 -131 42 -201.5t144 -70.5q104 0 146.5 70.5t42.5 201.5t-42.5 202.5t-145.5 71.5q-187 0 -187 -274zM604 337q0 -160 -67.5 -253.5t-209.5 -93.5t-208 93t-66 254q0 162 66 255.5t209 93.5t209.5 -94t66.5 -255zM408 887h58q0 -61 -37.5 -99.5t-101.5 -38.5
q-62 0 -99 38.5t-37 99.5h56q2 -34 23.5 -55.5t56.5 -21.5q36 0 57.5 21.5t23.5 55.5z" />
    <glyph glyph-name="obreve" unicode="&#x14f;" horiz-adv-x="500" 
d="M251 466q103 0 154 -64.5t51 -172.5q0 -110 -51 -174.5t-157 -64.5q-100 0 -151.5 65t-51.5 173t51 173t155 65zM249 63q125 0 125 165t-125 165q-123 0 -123 -164q0 -166 123 -166zM330 683h58q0 -61 -37.5 -99.5t-101.5 -38.5q-62 0 -99 38.5t-37 99.5h56
q2 -34 23.5 -55.5t56.5 -21.5q36 0 57.5 21.5t23.5 55.5z" />
    <glyph glyph-name="Ohungarumlaut" unicode="&#x150;" horiz-adv-x="656" 
d="M141 337q0 -131 42 -201.5t144 -70.5q104 0 146.5 70.5t42.5 201.5t-42.5 202.5t-145.5 71.5q-187 0 -187 -274zM604 337q0 -160 -67.5 -253.5t-209.5 -93.5t-208 93t-66 254q0 162 66 255.5t209 93.5t209.5 -94t66.5 -255zM285 900h86l-87 -156h-75zM441 900h86
l-87 -156h-75z" />
    <glyph glyph-name="ohungarumlaut" unicode="&#x151;" horiz-adv-x="500" 
d="M251 466q103 0 154 -64.5t51 -172.5q0 -110 -51 -174.5t-157 -64.5q-100 0 -151.5 65t-51.5 173t51 173t155 65zM249 63q125 0 125 165t-125 165q-123 0 -123 -164q0 -166 123 -166zM206 696h86l-87 -156h-75zM362 696h86l-87 -156h-75z" />
    <glyph glyph-name="OE" unicode="&#x152;" horiz-adv-x="877" 
d="M506 73h324v-73h-409q-43 -10 -94 -10q-142 0 -208 93t-66 254q0 162 66 255.5t209 93.5q47 0 94 -10h404v-73h-320v-221h284v-73h-284v-236zM327 65q51 0 93 14v516q-43 16 -92 16q-101 0 -143.5 -72t-42.5 -202q0 -132 41.5 -202t143.5 -70z" />
    <glyph glyph-name="oe" unicode="&#x153;" horiz-adv-x="804" 
d="M587 59q74 0 124 49l40 -54q-23 -26 -68.5 -45t-95.5 -19q-123 0 -171 93q-46 -93 -168 -93q-100 0 -151.5 65t-51.5 173t51 173t155 65q118 0 167 -95q46 95 161 95q90 0 136 -55.5t46 -136.5q0 -42 -6 -71h-297q2 -68 33.5 -106t95.5 -38zM249 63q125 0 125 165
t-125 165q-123 0 -123 -164q0 -166 123 -166zM459 264h224q2 12 2 20q0 52 -28.5 83.5t-77.5 31.5q-111 0 -120 -135z" />
    <glyph glyph-name="Racute" unicode="&#x154;" horiz-adv-x="595" 
d="M82 0v676h234q115 0 173.5 -49t58.5 -139q0 -76 -45.5 -124t-128.5 -60l192 -304h-99l-182 297h-117l-1 -297h-85zM460 488q0 57 -35 86t-116 29h-141v-233h141q81 0 116 30t35 88zM314 900h86l-87 -156h-75z" />
    <glyph glyph-name="racute" unicode="&#x155;" horiz-adv-x="342" 
d="M145 381h1q43 85 127 85q34 0 55 -7l-9 -84q-32 9 -61 9q-72 0 -111 -86v-298h-80v456h78v-75zM213 696h86l-87 -156h-75z" />
    <glyph glyph-name="Rcommaaccent" unicode="&#x156;" horiz-adv-x="595" 
d="M82 0v676h234q115 0 173.5 -49t58.5 -139q0 -76 -45.5 -124t-128.5 -60l192 -304h-99l-182 297h-117l-1 -297h-85zM460 488q0 57 -35 86t-116 29h-141v-233h141q81 0 116 30t35 88zM334 -68l-54 -148h-62l25 148h91z" />
    <glyph glyph-name="rcommaaccent" unicode="&#x157;" horiz-adv-x="342" 
d="M145 381h1q43 85 127 85q34 0 55 -7l-9 -84q-32 9 -61 9q-72 0 -111 -86v-298h-80v456h78v-75zM153 -68l-54 -148h-62l25 148h91z" />
    <glyph glyph-name="Rcaron" unicode="&#x158;" horiz-adv-x="595" 
d="M82 0v676h234q115 0 173.5 -49t58.5 -139q0 -76 -45.5 -124t-128.5 -60l192 -304h-99l-182 297h-117l-1 -297h-85zM460 488q0 57 -35 86t-116 29h-141v-233h141q81 0 116 30t35 88zM319 744h-81l-101 156h74l68 -101l68 101h74z" />
    <glyph glyph-name="rcaron" unicode="&#x159;" horiz-adv-x="343" 
d="M145 381h1q43 85 127 85q34 0 55 -7l-9 -84q-32 9 -61 9q-72 0 -111 -86v-298h-80v456h78v-75zM230 540h-81l-101 156h74l68 -101l68 101h74z" />
    <glyph glyph-name="Sacute" unicode="&#x15a;" horiz-adv-x="545" 
d="M489 587l-63 -47q-44 71 -146 71q-62 0 -96 -33t-34 -84q0 -41 23 -64.5t73 -38.5l90 -27q80 -25 121.5 -66.5t41.5 -110.5q0 -89 -62 -143t-169 -54q-171 0 -232 128l65 44q21 -46 57 -71.5t110 -25.5q69 0 105.5 31.5t36.5 85.5q0 75 -103 105l-90 27q-155 48 -155 176
q0 83 56 139.5t162 56.5q77 0 130 -28t79 -71zM309 900h86l-87 -156h-75z" />
    <glyph glyph-name="sacute" unicode="&#x15b;" horiz-adv-x="430" 
d="M381 402l-47 -49q-45 49 -116 49q-44 0 -66 -19.5t-22 -49.5q0 -46 56 -60l78 -18q127 -30 127 -128q0 -60 -47 -98.5t-136 -38.5q-115 0 -174 76l49 49q16 -19 29 -30.5t39 -21.5t60 -10q45 0 71.5 17.5t26.5 50.5q0 46 -68 63l-80 19q-111 27 -111 124q0 56 42.5 97.5
t128.5 41.5q106 0 160 -64zM261 696h86l-87 -156h-75z" />
    <glyph glyph-name="Scircumflex" unicode="&#x15c;" horiz-adv-x="545" 
d="M489 587l-63 -47q-44 71 -146 71q-62 0 -96 -33t-34 -84q0 -41 23 -64.5t73 -38.5l90 -27q80 -25 121.5 -66.5t41.5 -110.5q0 -89 -62 -143t-169 -54q-171 0 -232 128l65 44q21 -46 57 -71.5t110 -25.5q69 0 105.5 31.5t36.5 85.5q0 75 -103 105l-90 27q-155 48 -155 176
q0 83 56 139.5t162 56.5q77 0 130 -28t79 -71zM233 900h81l102 -156h-74l-69 101l-67 -101h-74z" />
    <glyph glyph-name="scircumflex" unicode="&#x15d;" horiz-adv-x="430" 
d="M381 402l-47 -49q-45 49 -116 49q-44 0 -66 -19.5t-22 -49.5q0 -46 56 -60l78 -18q127 -30 127 -128q0 -60 -47 -98.5t-136 -38.5q-115 0 -174 76l49 49q16 -19 29 -30.5t39 -21.5t60 -10q45 0 71.5 17.5t26.5 50.5q0 46 -68 63l-80 19q-111 27 -111 124q0 56 42.5 97.5
t128.5 41.5q106 0 160 -64zM179 696h81l102 -156h-74l-69 101l-67 -101h-74z" />
    <glyph glyph-name="Scedilla" unicode="&#x15e;" horiz-adv-x="545" 
d="M489 587l-63 -47q-44 71 -146 71q-62 0 -96 -33t-34 -84q0 -41 23 -64.5t73 -38.5l90 -27q80 -25 121.5 -66.5t41.5 -110.5q0 -84 -55.5 -137t-152.5 -59l-17 -45q92 0 92 -81q0 -34 -27.5 -57.5t-75.5 -23.5q-43 0 -87 22v58q38 -28 82 -28q19 0 30 8t11 21q0 34 -54 34
h-36l-4 6l30 86q-145 11 -199 127l65 44q21 -46 57 -71.5t110 -25.5q69 0 105.5 31.5t36.5 85.5q0 75 -103 105l-90 27q-155 48 -155 176q0 83 56 139.5t162 56.5q77 0 130 -28t79 -71z" />
    <glyph glyph-name="scedilla" unicode="&#x15f;" horiz-adv-x="430" 
d="M381 402l-47 -49q-45 49 -116 49q-44 0 -66 -19.5t-22 -49.5q0 -46 56 -60l78 -18q127 -30 127 -128q0 -54 -38.5 -91.5t-113.5 -43.5l-17 -46q92 0 92 -81q0 -34 -27.5 -57.5t-75.5 -23.5q-43 0 -87 22v58q38 -28 82 -28q19 0 30 8t11 21q0 34 -54 34h-36l-4 6l29 86
q-98 9 -148 75l49 49q16 -19 29 -30.5t39 -21.5t60 -10q45 0 71.5 17.5t26.5 50.5q0 46 -68 63l-80 19q-111 27 -111 124q0 56 42.5 97.5t128.5 41.5q106 0 160 -64z" />
    <glyph glyph-name="Scaron" unicode="&#x160;" horiz-adv-x="545" 
d="M489 587l-63 -47q-44 71 -146 71q-62 0 -96 -33t-34 -84q0 -41 23 -64.5t73 -38.5l90 -27q80 -25 121.5 -66.5t41.5 -110.5q0 -89 -62 -143t-169 -54q-171 0 -232 128l65 44q21 -46 57 -71.5t110 -25.5q69 0 105.5 31.5t36.5 85.5q0 75 -103 105l-90 27q-155 48 -155 176
q0 83 56 139.5t162 56.5q77 0 130 -28t79 -71zM314 744h-81l-101 156h74l68 -101l68 101h74z" />
    <glyph glyph-name="scaron" unicode="&#x161;" horiz-adv-x="430" 
d="M381 402l-47 -49q-45 49 -116 49q-44 0 -66 -19.5t-22 -49.5q0 -46 56 -60l78 -18q127 -30 127 -128q0 -60 -47 -98.5t-136 -38.5q-115 0 -174 76l49 49q16 -19 29 -30.5t39 -21.5t60 -10q45 0 71.5 17.5t26.5 50.5q0 46 -68 63l-80 19q-111 27 -111 124q0 56 42.5 97.5
t128.5 41.5q106 0 160 -64zM262 540h-81l-101 156h74l68 -101l68 101h74z" />
    <glyph glyph-name="Tcommaaccent" unicode="&#x162;" horiz-adv-x="538" 
d="M32 676h475v-73h-195v-603h-14l-21 -54q92 0 92 -81q0 -34 -27.5 -57.5t-75.5 -23.5q-43 0 -87 22v58q38 -28 82 -28q19 0 30 8t11 21q0 34 -54 34h-36l-4 6l33 95h-15v603h-194v73z" />
    <glyph glyph-name="tcommaaccent" unicode="&#x163;" horiz-adv-x="339" 
d="M185 387v-255q0 -68 62 -68q29 0 62 14l8 -69q-39 -18 -87 -19l-17 -44q92 0 92 -81q0 -34 -27.5 -57.5t-75.5 -23.5q-43 0 -87 22v58q38 -28 82 -28q19 0 30 8t11 21q0 34 -54 34h-36l-4 6l32 93q-70 24 -70 125v264h-87v59l87 10v114l79 15v-129h122v-69h-122z" />
    <glyph glyph-name="Tcaron" unicode="&#x164;" horiz-adv-x="538" 
d="M32 676h475v-73h-195v-603h-86v603h-194v73zM314 744h-81l-101 156h74l68 -101l68 101h74z" />
    <glyph glyph-name="tcaron" unicode="&#x165;" horiz-adv-x="339" 
d="M185 387v-255q0 -68 62 -68q29 0 62 14l8 -69q-40 -19 -93 -19q-118 0 -118 133v264h-87v59l87 10v114l79 15v-129h122v-69h-122zM412 690l-54 -148h-62l25 148h91z" />
    <glyph glyph-name="Tbar" unicode="&#x166;" horiz-adv-x="543" 
d="M137 367h91v236h-194v73h475v-73h-195v-236h91v-63h-91v-304h-86v304h-91v63z" />
    <glyph glyph-name="tbar" unicode="&#x167;" horiz-adv-x="343" 
d="M38 279h72v108h-87v59l87 10v114l79 15v-129h122v-69h-122v-108h100v-63h-100v-84q0 -68 62 -68q29 0 62 14l8 -69q-40 -19 -93 -19q-118 0 -118 133v93h-72v63z" />
    <glyph glyph-name="Utilde" unicode="&#x168;" horiz-adv-x="651" 
d="M325 -10q-116 0 -182.5 63.5t-66.5 198.5v424h86v-425q0 -98 40.5 -142t122.5 -44q81 0 122 44.5t41 141.5v425h86v-424q0 -136 -66.5 -199t-182.5 -63zM464 839l-6 -63q-33 26 -64 26q-22 0 -67 -19.5t-75 -19.5q-42 0 -67 25l6 61q24 -24 61 -24q24 0 67 19t75 19
q36 0 70 -24z" />
    <glyph glyph-name="utilde" unicode="&#x169;" horiz-adv-x="518" 
d="M398 635l-6 -63q-33 26 -64 26q-22 0 -67 -19.5t-75 -19.5q-42 0 -67 25l6 61q24 -24 61 -24q24 0 67 19t75 19q36 0 70 -24zM451 456v-456h-78v55q-21 -29 -61 -47t-89 -18q-83 0 -121.5 44t-38.5 131v291h80v-284q0 -55 23.5 -81.5t80.5 -26.5q80 0 124 53v339h80z" />
    <glyph glyph-name="Umacron" unicode="&#x16a;" horiz-adv-x="651" 
d="M325 -10q-116 0 -182.5 63.5t-66.5 198.5v424h86v-425q0 -98 40.5 -142t122.5 -44q81 0 122 44.5t41 141.5v425h86v-424q0 -136 -66.5 -199t-182.5 -63zM184 845h281v-66h-281v66z" />
    <glyph glyph-name="umacron" unicode="&#x16b;" horiz-adv-x="518" 
d="M119 641h281v-66h-281v66zM451 456v-456h-78v55q-21 -29 -61 -47t-89 -18q-83 0 -121.5 44t-38.5 131v291h80v-284q0 -55 23.5 -81.5t80.5 -26.5q80 0 124 53v339h80z" />
    <glyph glyph-name="Ubreve" unicode="&#x16c;" horiz-adv-x="651" 
d="M325 -10q-116 0 -182.5 63.5t-66.5 198.5v424h86v-425q0 -98 40.5 -142t122.5 -44q81 0 122 44.5t41 141.5v425h86v-424q0 -136 -66.5 -199t-182.5 -63zM404 887h58q0 -61 -37.5 -99.5t-101.5 -38.5q-62 0 -99 38.5t-37 99.5h56q2 -34 23.5 -55.5t56.5 -21.5
q36 0 57.5 21.5t23.5 55.5z" />
    <glyph glyph-name="ubreve" unicode="&#x16d;" horiz-adv-x="518" 
d="M340 683h58q0 -61 -37.5 -99.5t-101.5 -38.5q-62 0 -99 38.5t-37 99.5h56q2 -34 23.5 -55.5t56.5 -21.5q36 0 57.5 21.5t23.5 55.5zM451 456v-456h-78v55q-21 -29 -61 -47t-89 -18q-83 0 -121.5 44t-38.5 131v291h80v-284q0 -55 23.5 -81.5t80.5 -26.5q80 0 124 53v339
h80z" />
    <glyph glyph-name="Uring" unicode="&#x16e;" horiz-adv-x="651" 
d="M325 -10q-116 0 -182.5 63.5t-66.5 198.5v424h86v-425q0 -98 40.5 -142t122.5 -44q81 0 122 44.5t41 141.5v425h86v-424q0 -136 -66.5 -199t-182.5 -63zM220 826q0 41 28 68t75 27q49 0 77.5 -27t28.5 -68q0 -40 -28.5 -67.5t-77.5 -27.5q-47 0 -75 27.5t-28 67.5z
M273 826q0 -21 13.5 -34.5t36.5 -13.5q25 0 39 13.5t14 34.5q0 22 -14 35.5t-39 13.5q-23 0 -36.5 -13.5t-13.5 -35.5z" />
    <glyph glyph-name="uring" unicode="&#x16f;" horiz-adv-x="518" 
d="M152 622q0 41 28 68t75 27q49 0 77.5 -27t28.5 -68q0 -40 -28.5 -67.5t-77.5 -27.5q-47 0 -75 27.5t-28 67.5zM205 622q0 -21 13.5 -34.5t36.5 -13.5q25 0 39 13.5t14 34.5q0 22 -14 35.5t-39 13.5q-23 0 -36.5 -13.5t-13.5 -35.5zM451 456v-456h-78v55q-21 -29 -61 -47
t-89 -18q-83 0 -121.5 44t-38.5 131v291h80v-284q0 -55 23.5 -81.5t80.5 -26.5q80 0 124 53v339h80z" />
    <glyph glyph-name="Uhungarumlaut" unicode="&#x170;" horiz-adv-x="651" 
d="M325 -10q-116 0 -182.5 63.5t-66.5 198.5v424h86v-425q0 -98 40.5 -142t122.5 -44q81 0 122 44.5t41 141.5v425h86v-424q0 -136 -66.5 -199t-182.5 -63zM283 900h86l-87 -156h-75zM439 900h86l-87 -156h-75z" />
    <glyph glyph-name="uhungarumlaut" unicode="&#x171;" horiz-adv-x="519" 
d="M451 456v-456h-78v55q-21 -29 -61 -47t-89 -18q-83 0 -121.5 44t-38.5 131v291h80v-284q0 -55 23.5 -81.5t80.5 -26.5q80 0 124 53v339h80zM213 696h86l-87 -156h-75zM369 696h86l-87 -156h-75z" />
    <glyph glyph-name="Uogonek" unicode="&#x172;" horiz-adv-x="651" 
d="M574 252q0 -233 -198 -258l-66 -52q-33 -27 -33 -54q0 -16 11.5 -27.5t32.5 -11.5q29 0 64 26v-69q-40 -22 -83 -22q-49 0 -77.5 24.5t-28.5 65.5q0 53 54 96l28 23q-95 11 -148.5 74.5t-53.5 184.5v424h86v-425q0 -98 40.5 -142t122.5 -44q81 0 122 44.5t41 141.5v425
h86v-424z" />
    <glyph glyph-name="uogonek" unicode="&#x173;" horiz-adv-x="518" 
d="M451 456v-456l-75 -58q-33 -27 -33 -54q0 -16 11.5 -27.5t32.5 -11.5q29 0 64 26v-69q-40 -22 -83 -22q-49 0 -77.5 24.5t-28.5 65.5q0 53 54 96l57 45v40q-21 -29 -61 -47t-89 -18q-83 0 -121.5 44t-38.5 131v291h80v-284q0 -55 23.5 -81.5t80.5 -26.5q80 0 124 53v339
h80z" />
    <glyph glyph-name="Wcircumflex" unicode="&#x174;" horiz-adv-x="968" 
d="M434 676h100l163 -576l159 576h91l-194 -676h-107l-162 558l-162 -558h-107l-194 676h91l159 -576zM444 900h81l102 -156h-74l-69 101l-67 -101h-74z" />
    <glyph glyph-name="wcircumflex" unicode="&#x175;" horiz-adv-x="757" 
d="M339 456h79l118 -369l114 369h85l-149 -456h-89l-118 354l-119 -354h-89l-148 456h84l114 -369zM338 696h81l102 -156h-74l-69 101l-67 -101h-74z" />
    <glyph glyph-name="Ycircumflex" unicode="&#x176;" horiz-adv-x="576" 
d="M330 0h-86v270l-231 406h96l179 -326l177 326h97l-232 -406v-270zM247 900h81l102 -156h-74l-69 101l-67 -101h-74z" />
    <glyph glyph-name="ycircumflex" unicode="&#x177;" horiz-adv-x="480" 
d="M105 456l143 -333l128 333h88l-277 -672h-84l104 245l-192 427h90zM205 696h81l102 -156h-74l-69 101l-67 -101h-74z" />
    <glyph glyph-name="Ydieresis" unicode="&#x178;" horiz-adv-x="576" 
d="M330 0h-86v270l-231 406h96l179 -326l177 326h97l-232 -406v-270zM196 761q-56 0 -56 54q0 28 15.5 42t40.5 14q24 0 40 -14t16 -42q0 -27 -16 -40.5t-40 -13.5zM379 761q-55 0 -55 54q0 56 55 56q24 0 40 -14t16 -42q0 -27 -16 -40.5t-40 -13.5z" />
    <glyph glyph-name="Zacute" unicode="&#x179;" horiz-adv-x="515" 
d="M468 676v-65l-330 -538h337v-73h-440v64l332 539h-313v73h414zM298 900h86l-87 -156h-75z" />
    <glyph glyph-name="zacute" unicode="&#x17a;" horiz-adv-x="411" 
d="M366 456v-56l-228 -330h231v-70h-331v56l229 330h-218v70h317zM249 696h86l-87 -156h-75z" />
    <glyph glyph-name="Zdotaccent" unicode="&#x17b;" horiz-adv-x="515" 
d="M468 676v-65l-330 -538h337v-73h-440v64l332 539h-313v73h414zM260 761q-56 0 -56 54q0 28 15.5 42t40.5 14q23 0 39.5 -14.5t16.5 -41.5t-16.5 -40.5t-39.5 -13.5z" />
    <glyph glyph-name="zdotaccent" unicode="&#x17c;" horiz-adv-x="411" 
d="M366 456v-56l-228 -330h231v-70h-331v56l229 330h-218v70h317zM218 557q-56 0 -56 54q0 28 15.5 42t40.5 14q23 0 39.5 -14.5t16.5 -41.5t-16.5 -40.5t-39.5 -13.5z" />
    <glyph glyph-name="Zcaron" unicode="&#x17d;" horiz-adv-x="515" 
d="M468 676v-65l-330 -538h337v-73h-440v64l332 539h-313v73h414zM301 744h-81l-101 156h74l68 -101l68 101h74z" />
    <glyph glyph-name="zcaron" unicode="&#x17e;" horiz-adv-x="411" 
d="M366 456v-56l-228 -330h231v-70h-331v56l229 330h-218v70h317zM251 540h-81l-101 156h74l68 -101l68 101h74z" />
    <glyph glyph-name="florin" unicode="&#x192;" horiz-adv-x="347" 
d="M207 385v-457q0 -67 -33.5 -110.5t-102.5 -43.5q-38 0 -65 9v72q24 -7 52 -7q39 0 54.5 23t15.5 69v445h-97v70h97v91q0 68 33.5 111t104.5 43q33 0 62 -9v-72q-31 7 -52 7q-38 0 -53.5 -22.5t-15.5 -68.5v-80h105v-70h-105z" />
    <glyph glyph-name="Aringacute" unicode="&#x1fa;" horiz-adv-x="610" 
d="M203 810q0 36 21.5 60.5t57.5 30.5l56 80h82l-68 -86q58 -24 58 -85q0 -40 -28.5 -67t-76.5 -27q-47 0 -74.5 27t-27.5 67zM254 810q0 -22 14 -35.5t37 -13.5q25 0 39 13.5t14 35.5t-14 36t-39 14q-24 0 -37.5 -14t-13.5 -36zM506 0l-61 178h-280l-61 -178h-92l242 676
h102l244 -676h-94zM306 588l-118 -338h234z" />
    <glyph glyph-name="aringacute" unicode="&#x1fb;" horiz-adv-x="470" 
d="M139 612q0 36 22.5 62t61.5 31l49 73h80l-64 -81q27 -10 42.5 -32.5t15.5 -52.5q0 -40 -28.5 -67t-76.5 -27q-47 0 -74.5 27t-27.5 67zM190 612q0 -22 14 -35.5t37 -13.5q25 0 39 13.5t14 35.5t-14 36t-39 14q-24 0 -37.5 -14t-13.5 -36zM406 0h-76v56q-56 -66 -153 -66
q-65 0 -101.5 34t-36.5 95q0 125 209 147l78 8v45q0 41 -21 61t-74 20q-46 0 -70 -15t-24 -41v-26h-71q-3 16 -3 33q0 52 45 83.5t127 31.5q171 0 171 -146v-320zM120 123q0 -69 80 -69q74 0 126 56v109l-75 -9q-131 -18 -131 -87z" />
    <glyph glyph-name="AEacute" unicode="&#x1fc;" horiz-adv-x="940" 
d="M671 900h86l-87 -156h-75zM257 249h227v345zM93 0h-94l454 676h437v-73h-320v-221h285v-73h-285v-239h324v-70h-410v178h-271z" />
    <glyph glyph-name="aeacute" unicode="&#x1fd;" horiz-adv-x="753" 
d="M426 696h86l-87 -156h-75zM535 59q73 0 125 49l40 -54q-24 -27 -69 -45.5t-96 -18.5q-118 0 -167 81q-68 -81 -182 -81q-71 0 -109.5 34t-38.5 95q0 125 210 147l78 8v45q0 41 -21.5 61t-73.5 20q-47 0 -71 -15t-24 -41v-26h-71q-2 22 -2 33q0 52 44.5 83.5t127.5 31.5
q111 0 147 -70q49 70 145 70q90 0 136.5 -56t46.5 -136q0 -38 -7 -71h-296q3 -144 128 -144zM120 123q0 -69 80 -69q74 0 126 56v109l-76 -9q-130 -18 -130 -87zM408 264h224q2 12 2 20q0 52 -28.5 83.5t-78.5 31.5q-112 0 -119 -135z" />
    <glyph glyph-name="Oslashacute" unicode="&#x1fe;" horiz-adv-x="659" 
d="M362 900h82l-84 -155h-71zM605 337q0 -160 -67.5 -253.5t-209.5 -93.5q-112 0 -177 59l-38 -49h-76l73 97q-56 88 -56 240q0 162 66 255.5t209 93.5q112 0 180 -63l40 53h79l-78 -102q55 -88 55 -237zM142 337q0 -103 24 -167l294 388q-45 53 -131 53q-187 0 -187 -274z
M517 337q0 100 -24 162l-293 -385q44 -49 128 -49q104 0 146.5 70.5t42.5 201.5z" />
    <glyph glyph-name="oslashacute" unicode="&#x1ff;" horiz-adv-x="500" 
d="M251 466q72 0 121 -35l19 25h69l-49 -63q45 -61 45 -164q0 -110 -51 -174.5t-157 -64.5q-73 0 -119 34l-19 -24h-67l47 62q-45 61 -45 166q0 108 51 173t155 65zM126 229q0 -60 16 -99l183 240q-29 23 -76 23q-123 0 -123 -164zM249 63q125 0 125 165q0 58 -16 96
l-183 -239q30 -22 74 -22zM283 696h86l-87 -156h-75z" />
    <glyph glyph-name="Scommaaccent" unicode="&#x218;" horiz-adv-x="545" 
d="M489 587l-63 -47q-44 71 -146 71q-62 0 -96 -33t-34 -84q0 -41 23 -64.5t73 -38.5l90 -27q80 -25 121.5 -66.5t41.5 -110.5q0 -89 -62 -143t-169 -54q-171 0 -232 128l65 44q21 -46 57 -71.5t110 -25.5q69 0 105.5 31.5t36.5 85.5q0 75 -103 105l-90 27q-155 48 -155 176
q0 83 56 139.5t162 56.5q77 0 130 -28t79 -71zM324 -68l-54 -148h-62l25 148h91z" />
    <glyph glyph-name="scommaaccent" unicode="&#x219;" horiz-adv-x="430" 
d="M381 402l-47 -49q-45 49 -116 49q-44 0 -66 -19.5t-22 -49.5q0 -46 56 -60l78 -18q127 -30 127 -128q0 -60 -47 -98.5t-136 -38.5q-115 0 -174 76l49 49q16 -19 29 -30.5t39 -21.5t60 -10q45 0 71.5 17.5t26.5 50.5q0 46 -68 63l-80 19q-111 27 -111 124q0 56 42.5 97.5
t128.5 41.5q106 0 160 -64zM269 -68l-54 -148h-62l25 148h91z" />
    <glyph glyph-name="uni021A" unicode="&#x21a;" horiz-adv-x="538" 
d="M31 676h475v-73h-195v-603h-86v603h-194v73zM314 -68l-54 -148h-62l25 148h91z" />
    <glyph glyph-name="uni021B" unicode="&#x21b;" horiz-adv-x="339" 
d="M185 387v-255q0 -68 62 -68q29 0 62 14l8 -69q-40 -19 -93 -19q-118 0 -118 133v264h-87v59l87 10v114l79 15v-129h122v-69h-122zM247 -68l-54 -148h-62l25 148h91z" />
    <glyph glyph-name="dotlessj" unicode="&#x237;" horiz-adv-x="216" 
d="M27 -226l-43 56q48 22 66 54t18 89v483h80v-471q0 -84 -29 -134t-92 -77z" />
    <glyph glyph-name="circumflex" unicode="&#x2c6;" horiz-adv-x="600" 
d="M259 696h81l102 -156h-74l-69 101l-67 -101h-74z" />
    <glyph glyph-name="caron" unicode="&#x2c7;" horiz-adv-x="600" 
d="M340 540h-81l-101 156h74l68 -101l68 101h74z" />
    <glyph glyph-name="breve" unicode="&#x2d8;" horiz-adv-x="600" 
d="M379 683h58q0 -61 -37.5 -99.5t-101.5 -38.5q-62 0 -99 38.5t-37 99.5h56q2 -34 23.5 -55.5t56.5 -21.5q36 0 57.5 21.5t23.5 55.5z" />
    <glyph glyph-name="dotaccent" unicode="&#x2d9;" horiz-adv-x="600" 
d="M300 557q-56 0 -56 54q0 28 15.5 42t40.5 14q23 0 39.5 -14.5t16.5 -41.5t-16.5 -40.5t-39.5 -13.5z" />
    <glyph glyph-name="ring" unicode="&#x2da;" horiz-adv-x="600" 
d="M195 622q0 41 28 68t75 27q49 0 77.5 -27t28.5 -68q0 -40 -28.5 -67.5t-77.5 -27.5q-47 0 -75 27.5t-28 67.5zM248 622q0 -21 13.5 -34.5t36.5 -13.5q25 0 39 13.5t14 34.5q0 22 -14 35.5t-39 13.5q-23 0 -36.5 -13.5t-13.5 -35.5z" />
    <glyph glyph-name="ogonek" unicode="&#x2db;" horiz-adv-x="600" 
d="M394 0l-75 -58q-33 -27 -33 -54q0 -16 12 -27.5t32 -11.5q29 0 64 26v-69q-40 -22 -83 -22q-49 0 -77.5 24.5t-28.5 65.5q0 53 54 96l60 48z" />
    <glyph glyph-name="tilde" unicode="&#x2dc;" horiz-adv-x="600" 
d="M439 635l-6 -63q-33 26 -64 26q-22 0 -67 -19.5t-75 -19.5q-42 0 -67 25l6 61q24 -24 61 -24q24 0 66.5 19t75.5 19q36 0 70 -24z" />
    <glyph glyph-name="hungarumlaut" unicode="&#x2dd;" horiz-adv-x="600" 
d="M217 696h86l-87 -156h-75zM373 696h86l-87 -156h-75z" />
    <glyph glyph-name="uni0394" unicode="&#x394;" horiz-adv-x="668" 
d="M8 0l276 676h102l275 -676h-653zM540 70l-205 522l-208 -522h413z" />
    <glyph glyph-name="uni03A9" unicode="&#x3a9;" horiz-adv-x="698" 
d="M51 70h158q-62 47 -106 125.5t-44 168.5q0 139 72 230.5t217 91.5q75 0 132.5 -26t91 -71.5t50.5 -102t17 -122.5q0 -90 -44 -168t-107 -126h159v-70h-252v70q67 48 111.5 123.5t44.5 166.5q0 114 -50 182.5t-153 68.5q-101 0 -151 -68.5t-50 -182.5q0 -91 44.5 -166.5
t111.5 -123.5v-70h-252v70z" />
    <glyph glyph-name="uni03BC" unicode="&#x3bc;" horiz-adv-x="523" 
d="M147 -216h-79v672h79v-284q0 -55 24 -81.5t81 -26.5q80 0 124 53v339h79v-456h-77v55q-22 -29 -62 -47t-88 -18q-47 0 -81 14v-220z" />
    <glyph glyph-name="pi" unicode="&#x3c0;" horiz-adv-x="577" 
d="M114 0v387h-92v69h517v-69h-99v-255q0 -69 60 -69q18 0 29 2v-70q-24 -6 -49 -6q-118 0 -118 134v264h-170v-387h-78z" />
    <glyph glyph-name="Wgrave" unicode="&#x1e80;" horiz-adv-x="968" 
d="M434 676h100l163 -576l159 576h91l-194 -676h-107l-162 558l-162 -558h-107l-194 676h91l159 -576zM362 900h86l76 -156h-75z" />
    <glyph glyph-name="wgrave" unicode="&#x1e81;" horiz-adv-x="757" 
d="M339 456h79l118 -369l114 369h85l-149 -456h-89l-118 354l-119 -354h-89l-148 456h84l114 -369zM258 696h86l76 -156h-75z" />
    <glyph glyph-name="Wacute" unicode="&#x1e82;" horiz-adv-x="968" 
d="M434 676h100l163 -576l159 576h91l-194 -676h-107l-162 558l-162 -558h-107l-194 676h91l159 -576zM522 900h86l-87 -156h-75z" />
    <glyph glyph-name="wacute" unicode="&#x1e83;" horiz-adv-x="757" 
d="M339 456h79l118 -369l114 369h85l-149 -456h-89l-118 354l-119 -354h-89l-148 456h84l114 -369zM414 696h86l-87 -156h-75z" />
    <glyph glyph-name="Wdieresis" unicode="&#x1e84;" horiz-adv-x="968" 
d="M434 676h100l163 -576l159 576h91l-194 -676h-107l-162 558l-162 -558h-107l-194 676h91l159 -576zM393 761q-56 0 -56 54q0 28 15.5 42t40.5 14q24 0 40 -14t16 -42q0 -27 -16 -40.5t-40 -13.5zM576 761q-55 0 -55 54q0 56 55 56q24 0 40 -14t16 -42q0 -27 -16 -40.5
t-40 -13.5z" />
    <glyph glyph-name="wdieresis" unicode="&#x1e85;" horiz-adv-x="757" 
d="M339 456h79l118 -369l114 369h85l-149 -456h-89l-118 354l-119 -354h-89l-148 456h84l114 -369zM287 557q-56 0 -56 54q0 28 15.5 42t40.5 14q24 0 40 -14t16 -42q0 -27 -16 -40.5t-40 -13.5zM470 557q-55 0 -55 54q0 56 55 56q24 0 40 -14t16 -42q0 -27 -16 -40.5
t-40 -13.5z" />
    <glyph glyph-name="Ygrave" unicode="&#x1ef2;" horiz-adv-x="576" 
d="M330 0h-86v270l-231 406h96l179 -326l177 326h97l-232 -406v-270zM168 900h86l76 -156h-75z" />
    <glyph glyph-name="ygrave" unicode="&#x1ef3;" horiz-adv-x="480" 
d="M105 456l143 -333l128 333h88l-277 -672h-84l104 245l-192 427h90zM130 696h86l76 -156h-75z" />
    <glyph glyph-name="endash" unicode="&#x2013;" horiz-adv-x="586" 
d="M63 305h460v-70h-460v70z" />
    <glyph glyph-name="emdash" unicode="&#x2014;" horiz-adv-x="726" 
d="M63 305h600v-70h-600v70z" />
    <glyph glyph-name="quoteleft" unicode="&#x2018;" horiz-adv-x="213" 
d="M48 452l54 224h62l-25 -224h-91z" />
    <glyph glyph-name="quoteright" unicode="&#x2019;" horiz-adv-x="208" 
d="M171 676l-53 -224h-63l25 224h91z" />
    <glyph glyph-name="quotesinglbase" unicode="&#x201a;" horiz-adv-x="220" 
d="M161 112l-54 -224h-62l25 224h91z" />
    <glyph glyph-name="quotedblleft" unicode="&#x201c;" horiz-adv-x="352" 
d="M187 452l54 224h62l-25 -224h-91zM48 452l54 224h62l-25 -224h-91z" />
    <glyph glyph-name="quotedblright" unicode="&#x201d;" horiz-adv-x="347" 
d="M171 676l-53 -224h-63l25 224h91zM310 676l-53 -224h-62l25 224h90z" />
    <glyph glyph-name="quotedblbase" unicode="&#x201e;" horiz-adv-x="359" 
d="M161 112l-54 -224h-62l25 224h91zM300 112l-54 -224h-62l25 224h91z" />
    <glyph glyph-name="dagger" unicode="&#x2020;" horiz-adv-x="422" 
d="M30 297h152v393h59v-393h151v-56h-151v-457h-59v457h-152v56z" />
    <glyph glyph-name="daggerdbl" unicode="&#x2021;" horiz-adv-x="474" 
d="M56 449h152v241h59v-241h151v-56h-151v-308h151v-56h-151v-245h-59v245h-152v56h152v308h-152v56z" />
    <glyph glyph-name="bullet" unicode="&#x2022;" horiz-adv-x="383" 
d="M192 160q-49 0 -81.5 31t-32.5 78t32.5 78t81.5 31t81 -31t32 -78t-32 -78t-81 -31z" />
    <glyph glyph-name="ellipsis" unicode="&#x2026;" horiz-adv-x="617" 
d="M114 -7q-26 0 -43.5 17t-17.5 42t17.5 42t43.5 17t43.5 -17t17.5 -42t-17.5 -42t-43.5 -17zM503 -7q-26 0 -43.5 17t-17.5 42t17.5 42t43.5 17t43.5 -17t17.5 -42t-17.5 -42t-43.5 -17zM310 -7q-26 0 -43.5 17t-17.5 42t17.5 42t43.5 17t43.5 -17t17.5 -42t-17.5 -42
t-43.5 -17z" />
    <glyph glyph-name="perthousand" unicode="&#x2030;" horiz-adv-x="1125" 
d="M639 676l-407 -676h-69l405 676h71zM618 46q42 0 60.5 32t18.5 97q0 66 -18.5 98t-60.5 32q-79 0 -79 -130q0 -129 79 -129zM618 356q143 0 143 -181q0 -180 -143 -180t-143 180q0 86 35 133.5t108 47.5zM183 370q42 0 60.5 32t18.5 97q0 66 -18.5 98t-60.5 32
q-79 0 -79 -130q0 -129 79 -129zM183 680q143 0 143 -181q0 -180 -143 -180t-143 180q0 86 35 133.5t108 47.5zM941 46q42 0 60.5 32t18.5 97q0 66 -18.5 98t-60.5 32q-79 0 -79 -130q0 -129 79 -129zM941 356q143 0 143 -181q0 -180 -143 -180t-143 180q0 86 35 133.5
t108 47.5z" />
    <glyph glyph-name="guilsinglleft" unicode="&#x2039;" horiz-adv-x="307" 
d="M29 270l179 215l53 -38l-135 -177l135 -178l-53 -38z" />
    <glyph glyph-name="guilsinglright" unicode="&#x203a;" horiz-adv-x="307" 
d="M99 485l179 -215l-179 -216l-53 38l135 178l-135 177z" />
    <glyph glyph-name="fraction" unicode="&#x2044;" horiz-adv-x="176" 
d="M326 676l-407 -676h-69l405 676h71z" />
    <glyph glyph-name="zerosuperior" unicode="&#x2070;" horiz-adv-x="354" 
d="M176 482q42 0 60.5 32t18.5 97q0 66 -18.5 98t-60.5 32q-79 0 -79 -130q0 -129 79 -129zM176 792q143 0 143 -181q0 -180 -143 -180t-143 180q0 86 35 133.5t108 47.5z" />
    <glyph glyph-name="foursuperior" unicode="&#x2074;" horiz-adv-x="334" 
d="M309 556v-50h-49v-70h-62v70h-180v45l177 235h65v-230h49zM84 556h114v150z" />
    <glyph glyph-name="fivesuperior" unicode="&#x2075;" horiz-adv-x="315" 
d="M284 549q0 -52 -34.5 -85.5t-97.5 -33.5q-64 0 -95.5 28t-31.5 73h63q0 -22 16.5 -35.5t47.5 -13.5q33 0 50.5 18.5t17.5 48.5q0 27 -17.5 44t-48.5 17q-34 0 -61 -18l-50 6l24 188h203v-50h-152l-12 -89q30 15 60 15q51 0 84.5 -28.5t33.5 -84.5z" />
    <glyph glyph-name="sixsuperior" unicode="&#x2076;" horiz-adv-x="336" 
d="M99 571q0 -40 18 -65t54 -25q33 0 51 17.5t18 48.5q0 29 -18 46.5t-51 17.5q-47 0 -72 -40zM177 740q-40 0 -59.5 -30.5t-19.5 -82.5q32 32 88 32q55 0 86.5 -30.5t31.5 -81.5q0 -50 -34.5 -84t-98.5 -34q-70 0 -104 46t-34 123q0 89 35.5 141t108.5 52q59 0 89 -27
t30 -69h-63q0 45 -56 45z" />
    <glyph glyph-name="sevensuperior" unicode="&#x2077;" horiz-adv-x="280" 
d="M54 436l139 300h-174v50h244v-43l-141 -307h-68z" />
    <glyph glyph-name="eightsuperior" unicode="&#x2078;" horiz-adv-x="340" 
d="M170 430q-62 0 -99.5 27t-37.5 74q0 67 69 85q-62 20 -62 77q0 46 35 72.5t95 26.5t94.5 -26.5t34.5 -72.5q0 -57 -61 -77q69 -18 69 -85q0 -47 -37.5 -74t-99.5 -27zM170 591q-32 0 -52.5 -15t-20.5 -40t20.5 -39.5t53.5 -14.5q31 0 51 14.5t20 39.5t-19.5 40t-52.5 15z
M170 741q-30 0 -47.5 -13.5t-17.5 -37.5q0 -23 18 -36t47 -13q28 0 46.5 13t18.5 36q0 24 -17.5 37.5t-47.5 13.5z" />
    <glyph glyph-name="ninesuperior" unicode="&#x2079;" horiz-adv-x="336" 
d="M236 650q0 39 -18 64.5t-53 25.5q-34 0 -51.5 -18t-17.5 -48t17.5 -47t51.5 -17q48 0 71 40zM39 525h63q0 -21 15.5 -32.5t40.5 -11.5q79 0 79 113q-33 -33 -88 -33t-86.5 30.5t-31.5 81.5t34.5 84.5t99.5 33.5q69 0 103 -46t34 -123q0 -89 -35.5 -141t-108.5 -52
q-58 0 -88.5 27t-30.5 69z" />
    <glyph glyph-name="zeroinferior" unicode="&#x2080;" horiz-adv-x="354" 
d="M176 -54q42 0 60.5 32t18.5 97q0 66 -18.5 98t-60.5 32q-79 0 -79 -130q0 -129 79 -129zM176 256q143 0 143 -181q0 -180 -143 -180t-143 180q0 86 35 133.5t108 47.5z" />
    <glyph glyph-name="oneinferior" unicode="&#x2081;" horiz-adv-x="236" 
d="M185 -100h-63v293l-101 -37l-15 48l124 46h55v-350z" />
    <glyph glyph-name="twoinferior" unicode="&#x2082;" horiz-adv-x="310" 
d="M151 256q55 0 88.5 -29.5t33.5 -75.5q0 -34 -20 -63.5t-58 -65.5l-77 -72h160v-50h-244v43l120 115q54 51 54 93q0 24 -15 39t-42 15q-58 0 -58 -61h-62q0 51 30.5 81.5t89.5 30.5z" />
    <glyph glyph-name="threeinferior" unicode="&#x2083;" horiz-adv-x="323" 
d="M216 79q30 -6 51.5 -28.5t21.5 -56.5q0 -45 -36 -72.5t-96 -27.5q-63 0 -95.5 27t-32.5 70h63q0 -21 17.5 -33t47.5 -12q31 0 49.5 13.5t18.5 37.5q0 26 -21 41.5t-59 15.5h-35v50h35q34 0 54 13.5t20 37.5q0 23 -17 36.5t-45 13.5t-44 -12.5t-16 -32.5h-63q0 42 31 69
t92 27q58 0 92 -27.5t34 -70.5q0 -30 -19 -51t-48 -28z" />
    <glyph glyph-name="fourinferior" unicode="&#x2084;" horiz-adv-x="334" 
d="M309 20v-50h-49v-70h-62v70h-180v45l177 235h65v-230h49zM84 20h114v150z" />
    <glyph glyph-name="fiveinferior" unicode="&#x2085;" horiz-adv-x="314" 
d="M284 13q0 -52 -34.5 -85.5t-97.5 -33.5q-64 0 -95.5 28t-31.5 73h63q0 -22 16.5 -35.5t47.5 -13.5q33 0 50.5 18.5t17.5 48.5q0 27 -17.5 44t-48.5 17q-34 0 -61 -18l-50 6l24 188h203v-50h-152l-12 -89q30 15 60 15q51 0 84.5 -28.5t33.5 -84.5z" />
    <glyph glyph-name="sixinferior" unicode="&#x2086;" horiz-adv-x="335" 
d="M99 36q0 -40 18 -65t54 -25q33 0 51 17.5t18 48.5q0 29 -18 46.5t-51 17.5q-47 0 -72 -40zM177 205q-40 0 -59.5 -30.5t-19.5 -82.5q32 32 88 32q55 0 86.5 -30.5t31.5 -81.5q0 -50 -34.5 -84t-98.5 -34q-70 0 -104 46t-34 123q0 89 35.5 141t108.5 52q59 0 89 -27
t30 -69h-63q0 45 -56 45z" />
    <glyph glyph-name="seveninferior" unicode="&#x2087;" horiz-adv-x="280" 
d="M54 -100l139 300h-174v50h244v-43l-141 -307h-68z" />
    <glyph glyph-name="eightinferior" unicode="&#x2088;" horiz-adv-x="340" 
d="M170 -106q-62 0 -99.5 27t-37.5 74q0 67 69 85q-62 20 -62 77q0 46 35 72.5t95 26.5t94.5 -26.5t34.5 -72.5q0 -57 -61 -77q69 -18 69 -85q0 -47 -37.5 -74t-99.5 -27zM170 55q-32 0 -52.5 -15t-20.5 -40t20.5 -39.5t53.5 -14.5q31 0 51 14.5t20 39.5t-19.5 40t-52.5 15z
M170 205q-30 0 -47.5 -13.5t-17.5 -37.5q0 -23 18 -36t47 -13q28 0 46.5 13t18.5 36q0 24 -17.5 37.5t-47.5 13.5z" />
    <glyph glyph-name="nineinferior" unicode="&#x2089;" horiz-adv-x="335" 
d="M236 115q0 39 -18 64.5t-53 25.5q-34 0 -51.5 -18t-17.5 -48t17.5 -47t51.5 -17q48 0 71 40zM39 -10h63q0 -21 15.5 -32.5t40.5 -11.5q79 0 79 113q-33 -33 -88 -33t-86.5 30.5t-31.5 81.5t34.5 84.5t99.5 33.5q69 0 103 -46t34 -123q0 -89 -35.5 -141t-108.5 -52
q-58 0 -88.5 27t-30.5 69z" />
    <glyph glyph-name="rupee" unicode="&#x20a8;" horiz-adv-x="535" 
d="M57 676h433v-58h-126q44 -37 51 -109h75v-59h-75q-8 -63 -52 -105.5t-115 -52.5l184 -292h-99l-176 283h-100v70h107q144 0 162 97h-268v59h269q-10 49 -44.5 73t-106.5 24h-119v70z" />
    <glyph glyph-name="Euro" unicode="&#x20ac;" horiz-adv-x="576" 
d="M43 432h55q16 120 79.5 187t176.5 67q88 0 174 -43l-29 -72q-71 39 -147 39q-142 0 -167 -178h261l-24 -58h-242q-1 -12 -1 -34q0 -16 2 -44h213l-22 -59h-184q33 -172 169 -172q79 0 153 47l21 -75q-86 -48 -177 -48q-218 0 -255 248h-56v59h50q-1 14 -1 44q0 22 1 34
h-50v58z" />
    <glyph glyph-name="afii61289" unicode="&#x2113;" horiz-adv-x="383" 
d="M356 35q-54 -46 -123 -46q-107 0 -107 128v123q-27 -25 -75 -58l-29 47q54 37 104 83v225q0 85 32 127t86 42q50 0 76 -34.5t26 -97.5q0 -74 -40.5 -143t-120.5 -145v-160q0 -78 53 -78q48 0 93 37zM286 569q0 37 -13 56.5t-34 19.5q-25 0 -39.5 -25.5t-14.5 -70.5v-188
q101 108 101 208z" />
    <glyph glyph-name="uni2117" unicode="&#x2117;" horiz-adv-x="814" 
d="M51 337q0 159 101 258.5t256 99.5q154 0 254.5 -99.5t100.5 -258.5t-100.5 -259.5t-254.5 -100.5t-255.5 100.5t-101.5 259.5zM117 337q0 -135 81 -216t210 -81q128 0 209 81t81 216t-81 215.5t-209 80.5q-129 0 -210 -80.5t-81 -215.5zM279 534h148q75 0 112.5 -34
t37.5 -91t-38 -90.5t-112 -33.5h-85v-151h-63v400zM510 409q0 72 -82 72h-86v-142h86q82 0 82 70z" />
    <glyph glyph-name="trademark" unicode="&#x2122;" horiz-adv-x="641" 
d="M53 607h200v-37h-79v-200h-45v200h-76v37zM433 421l53 186h62l28 -237h-45l-18 188l-56 -188h-50l-51 186l-21 -186h-44l28 237h64z" />
    <glyph glyph-name="Omega" unicode="&#x2126;" horiz-adv-x="704" 
d="M54 70h158q-62 47 -106 125.5t-44 168.5q0 139 72 230.5t217 91.5q75 0 132.5 -26t91 -71.5t50.5 -102t17 -122.5q0 -90 -44 -168t-107 -126h159v-70h-252v70q67 48 111.5 123.5t44.5 166.5q0 114 -50 182.5t-153 68.5q-101 0 -151 -68.5t-50 -182.5q0 -91 44.5 -166.5
t111.5 -123.5v-70h-252v70z" />
    <glyph glyph-name="estimated" unicode="&#x212e;" horiz-adv-x="748" 
d="M707 338h-511v-230q74 -74 183 -74q80 0 139 36.5t106 115.5l45 -27q-59 -92 -125 -131.5t-165 -39.5q-146 0 -236.5 100t-90.5 250q0 151 90 250.5t237 99.5q146 0 236.5 -98t91.5 -252zM196 384h369v184q-81 75 -187 75q-107 0 -182 -75v-184z" />
    <glyph glyph-name="onethird" unicode="&#x2153;" horiz-adv-x="750" 
d="M631 179q30 -6 51.5 -28.5t21.5 -56.5q0 -45 -36 -72.5t-96 -27.5q-63 0 -95.5 27t-32.5 70h63q0 -21 17.5 -33t47.5 -12q31 0 49.5 13.5t18.5 37.5q0 26 -21 41.5t-59 15.5h-35v50h35q34 0 54 13.5t20 37.5q0 23 -17 36.5t-45 13.5t-44 -12.5t-16 -32.5h-63q0 42 31 69
t92 27q58 0 92 -27.5t34 -70.5q0 -30 -19 -51t-48 -28zM592 676l-407 -676h-69l405 676h71zM211 324h-63v293l-101 -37l-15 48l124 46h55v-350z" />
    <glyph glyph-name="twothirds" unicode="&#x2154;" horiz-adv-x="798" 
d="M168 680q55 0 88.5 -29.5t33.5 -75.5q0 -34 -20 -63.5t-58 -65.5l-77 -72h160v-50h-244v43l120 115q54 51 54 93q0 24 -15 39t-42 15q-58 0 -58 -61h-62q0 51 30.5 81.5t89.5 30.5zM681 179q30 -6 51.5 -28.5t21.5 -56.5q0 -45 -36 -72.5t-96 -27.5q-63 0 -95.5 27
t-32.5 70h63q0 -21 17.5 -33t47.5 -12q31 0 49.5 13.5t18.5 37.5q0 26 -21 41.5t-59 15.5h-35v50h35q34 0 54 13.5t20 37.5q0 23 -17 36.5t-45 13.5t-44 -12.5t-16 -32.5h-63q0 42 31 69t92 27q58 0 92 -27.5t34 -70.5q0 -30 -19 -51t-48 -28zM643 676l-407 -676h-69
l405 676h71z" />
    <glyph glyph-name="oneeighth" unicode="&#x215b;" horiz-adv-x="756" 
d="M575 -6q-62 0 -99.5 27t-37.5 74q0 67 69 85q-62 20 -62 77q0 46 35 72.5t95 26.5t94.5 -26.5t34.5 -72.5q0 -57 -61 -77q69 -18 69 -85q0 -47 -37.5 -74t-99.5 -27zM575 155q-32 0 -52.5 -15t-20.5 -40t20.5 -39.5t53.5 -14.5q31 0 51 14.5t20 39.5t-19.5 40t-52.5 15z
M575 305q-30 0 -47.5 -13.5t-17.5 -37.5q0 -23 18 -36t47 -13q28 0 46.5 13t18.5 36q0 24 -17.5 37.5t-47.5 13.5zM592 676l-407 -676h-69l405 676h71zM211 324h-63v293l-101 -37l-15 48l124 46h55v-350z" />
    <glyph glyph-name="threeeighths" unicode="&#x215c;" horiz-adv-x="795" 
d="M231 503q30 -6 51.5 -28.5t21.5 -56.5q0 -45 -36 -72.5t-96 -27.5q-63 0 -95.5 27t-32.5 70h63q0 -21 17.5 -33t47.5 -12q31 0 49.5 13.5t18.5 37.5q0 26 -21 41.5t-59 15.5h-35v50h35q34 0 54 13.5t20 37.5q0 23 -17 36.5t-45 13.5t-44 -12.5t-16 -32.5h-63q0 42 31 69
t92 27q58 0 92 -27.5t34 -70.5q0 -30 -19 -51t-48 -28zM633 676l-407 -676h-69l405 676h71zM615 -6q-62 0 -99.5 27t-37.5 74q0 67 69 85q-62 20 -62 77q0 46 35 72.5t95 26.5t94.5 -26.5t34.5 -72.5q0 -57 -61 -77q69 -18 69 -85q0 -47 -37.5 -74t-99.5 -27zM615 155
q-32 0 -52.5 -15t-20.5 -40t20.5 -39.5t53.5 -14.5q31 0 51 14.5t20 39.5t-19.5 40t-52.5 15zM615 305q-30 0 -47.5 -13.5t-17.5 -37.5q0 -23 18 -36t47 -13q28 0 46.5 13t18.5 36q0 24 -17.5 37.5t-47.5 13.5z" />
    <glyph glyph-name="fiveeighths" unicode="&#x215d;" horiz-adv-x="784" 
d="M297 437q0 -52 -34.5 -85.5t-97.5 -33.5q-64 0 -95.5 28t-31.5 73h63q0 -22 16.5 -35.5t47.5 -13.5q33 0 50.5 18.5t17.5 48.5q0 27 -17.5 44t-48.5 17q-34 0 -61 -18l-50 6l24 188h203v-50h-152l-12 -89q30 15 60 15q51 0 84.5 -28.5t33.5 -84.5zM621 676l-407 -676h-69
l405 676h71zM603 -6q-62 0 -99.5 27t-37.5 74q0 67 69 85q-62 20 -62 77q0 46 35 72.5t95 26.5t94.5 -26.5t34.5 -72.5q0 -57 -61 -77q69 -18 69 -85q0 -47 -37.5 -74t-99.5 -27zM603 155q-32 0 -52.5 -15t-20.5 -40t20.5 -39.5t53.5 -14.5q31 0 51 14.5t20 39.5t-19.5 40
t-52.5 15zM603 305q-30 0 -47.5 -13.5t-17.5 -37.5q0 -23 18 -36t47 -13q28 0 46.5 13t18.5 36q0 24 -17.5 37.5t-47.5 13.5z" />
    <glyph glyph-name="seveneighths" unicode="&#x215e;" horiz-adv-x="711" 
d="M78 324l139 300h-174v50h244v-43l-141 -307h-68zM532 -6q-62 0 -99.5 27t-37.5 74q0 67 69 85q-62 20 -62 77q0 46 35 72.5t95 26.5t94.5 -26.5t34.5 -72.5q0 -57 -61 -77q69 -18 69 -85q0 -47 -37.5 -74t-99.5 -27zM532 155q-32 0 -52.5 -15t-20.5 -40t20.5 -39.5
t53.5 -14.5q31 0 51 14.5t20 39.5t-19.5 40t-52.5 15zM532 305q-30 0 -47.5 -13.5t-17.5 -37.5q0 -23 18 -36t47 -13q28 0 46.5 13t18.5 36q0 24 -17.5 37.5t-47.5 13.5zM549 676l-407 -676h-69l405 676h71z" />
    <glyph glyph-name="arrowleft" unicode="&#x2190;" horiz-adv-x="750" 
d="M56 279l268 270l48 -49l-186 -186h489v-70h-489l185 -185l-47 -48z" />
    <glyph glyph-name="arrowup" unicode="&#x2191;" horiz-adv-x="750" 
d="M374 606l270 -268l-48 -47l-187 185v-488h-69v488l-186 -185l-48 47z" />
    <glyph glyph-name="arrowright" unicode="&#x2192;" horiz-adv-x="750" 
d="M694 286l-268 -270l-48 49l186 186h-489v70h489l-185 185l47 48z" />
    <glyph glyph-name="arrowdown" unicode="&#x2193;" horiz-adv-x="750" 
d="M376 -43l-270 269l48 47l187 -185v488h69v-488l186 185l48 -47z" />
    <glyph glyph-name="uni2196" unicode="&#x2196;" horiz-adv-x="750" 
d="M160 511h381v-68h-263l346 -346l-50 -49l-346 345v-262h-68v380z" />
    <glyph glyph-name="uni2197" unicode="&#x2197;" horiz-adv-x="750" 
d="M589 511v-381h-67v263l-346 -345l-50 49l346 346h-263v68h380z" />
    <glyph glyph-name="uni2198" unicode="&#x2198;" horiz-adv-x="750" 
d="M586 54h-381v68h263l-346 346l50 49l346 -345v262h68v-380z" />
    <glyph glyph-name="uni2199" unicode="&#x2199;" horiz-adv-x="750" 
d="M164 54v381h68v-263l345 345l50 -49l-346 -346h263v-68h-380z" />
    <glyph glyph-name="partialdiff" unicode="&#x2202;" horiz-adv-x="525" 
d="M219 690h102q69 -58 111 -156t42 -220q0 -68 -11.5 -124t-36 -102.5t-68.5 -72t-104 -25.5q-103 0 -156 62.5t-53 166.5q0 103 51 165.5t142 62.5q110 0 157 -97q-1 97 -48.5 185t-127.5 155zM254 61q128 0 136 200q-46 111 -140 111q-63 0 -94.5 -42t-31.5 -113
q0 -69 31.5 -112.5t98.5 -43.5z" />
    <glyph glyph-name="Delta" unicode="&#x2206;" horiz-adv-x="701" 
d="M24 0l276 676h102l275 -676h-653zM556 70l-205 522l-208 -522h413z" />
    <glyph glyph-name="product" unicode="&#x220f;" horiz-adv-x="744" 
d="M41 676h662v-70h-67v-822h-82v822h-364v-822h-82v822h-67v70z" />
    <glyph glyph-name="summation" unicode="&#x2211;" horiz-adv-x="586" 
d="M544 -146v-70h-502v88l259 367l-258 348v89h499v-70h-419l272 -367l-272 -385h421z" />
    <glyph glyph-name="minus" unicode="&#x2212;" 
d="M48 236v69h463v-69h-463z" />
    <glyph glyph-name="uni2215" unicode="&#x2215;" horiz-adv-x="464" 
d="M470 676l-407 -676h-69l405 676h71z" />
    <glyph glyph-name="uni2219" unicode="&#x2219;" horiz-adv-x="244" 
d="M122 209q-28 0 -46 18t-18 44q0 27 18 44.5t46 17.5q27 0 45 -17.5t18 -44.5q0 -26 -18 -44t-45 -18z" />
    <glyph glyph-name="radical" unicode="&#x221a;" horiz-adv-x="614" 
d="M601 696l-244 -912h-90l-151 342l-73 -34l-28 61l148 67l142 -341l213 817h83z" />
    <glyph glyph-name="infinity" unicode="&#x221e;" horiz-adv-x="738" 
d="M686 264q0 -68 -43 -112t-109 -44q-92 0 -164 105q-74 -104 -164 -104q-66 0 -110 42.5t-44 111.5q0 68 43 112t109 44q89 0 166 -110q74 112 163 112q65 0 109 -43.5t44 -113.5zM620 263q0 42 -25.5 67.5t-67.5 25.5q-23 0 -47 -17t-35.5 -32l-33.5 -45
q30 -44 56.5 -67.5t60.5 -23.5q41 0 66.5 26t25.5 66zM330 262q-67 94 -120 94q-40 0 -65.5 -26.5t-25.5 -66.5q0 -42 26 -67t66 -25q58 0 119 91z" />
    <glyph glyph-name="integral" unicode="&#x222b;" horiz-adv-x="366" 
d="M222 546v-618q0 -68 -34.5 -111t-109.5 -43q-27 0 -56 9v70q28 -5 56 -5q36 0 51 21.5t15 64.5v618q0 68 34.5 111t109.5 43q27 0 56 -9v-70q-28 5 -57 5q-36 0 -50.5 -21.5t-14.5 -64.5z" />
    <glyph glyph-name="approxequal" unicode="&#x2248;" 
d="M468 421l16 -63q-42 -51 -101 -51q-40 0 -109.5 33t-96.5 33q-19 0 -35.5 -8.5t-31.5 -21t-16 -13.5l-17 64q46 51 106 51q34 0 103 -34t99 -34q13 0 27.5 6t23.5 12.5t19.5 15.5t12.5 10zM467 211l16 -63q-43 -51 -101 -51q-40 0 -108.5 34t-95.5 34q-19 0 -36.5 -8.5
t-32.5 -21t-17 -13.5l-16 63q43 50 106 50q35 0 104 -34t99 -34q13 0 27.5 6t23.5 13l19 15t12 10z" />
    <glyph glyph-name="notequal" unicode="&#x2260;" 
d="M83 421h211l29 118l47 -10l-27 -108h134v-69h-151l-41 -163h192v-70h-209l-31 -124l-46 10l28 114h-136v70h153l41 163h-194v69z" />
    <glyph glyph-name="lessequal" unicode="&#x2264;" 
d="M77 353v80l395 166v-76l-323 -130l323 -129v-77zM79 31v68h393v-68h-393z" />
    <glyph glyph-name="greaterequal" unicode="&#x2265;" 
d="M80 31v68h393v-68h-393zM486 433v-80l-394 -166v77l323 129l-323 130v76z" />
    <glyph glyph-name="lozenge" unicode="&#x25ca;" horiz-adv-x="602" 
d="M482 351l-181 267l-183 -267l183 -274zM574 351l-236 -351h-75l-235 351l235 345h75z" />
    <glyph glyph-name="circle" unicode="&#x25cb;" horiz-adv-x="781" 
d="M51 338q0 155 95.5 251.5t243.5 96.5q149 0 244 -96t95 -252q0 -155 -95 -252t-244 -97q-148 0 -243.5 97.5t-95.5 251.5zM113 338q0 -134 75.5 -211.5t201.5 -77.5t201.5 77.5t75.5 211.5t-75.5 211t-201.5 77t-201.5 -77t-75.5 -211z" />
    <glyph glyph-name="commaaccent" unicode="&#xf6c3;" horiz-adv-x="600" 
d="M358 -68l-54 -148h-62l25 148h91z" />
    <glyph glyph-name="uniF8FF" unicode="&#xf8ff;" horiz-adv-x="599" 
d="M93 0v656h413v-656h-413zM131 39h337v578h-337v-578z" />
    <glyph glyph-name="exclam.sc" horiz-adv-x="223" 
d="M142 163h-62l-13 344h90zM112 -5q-24 0 -39 14t-15 36q0 21 15 35.5t39 14.5q23 0 38.5 -14.5t15.5 -35.5q0 -22 -15.5 -36t-38.5 -14z" />
    <glyph glyph-name="numbersign.sc" horiz-adv-x="530" 
d="M121 140h-80l9 66h82l18 106h-80l8 66h82l22 129h72l-22 -129h101l22 129h72l-21 -129h84l-9 -66h-86l-18 -106h84l-8 -66h-87l-23 -140h-73l24 140h-100l-24 -140h-73zM221 312l-17 -106h101l17 106h-101z" />
    <glyph glyph-name="dollar.sc" horiz-adv-x="466" 
d="M256 -77h-43v70q-125 5 -174 93l59 43q31 -63 115 -69v162l-25 7q-127 37 -127 135q0 58 38.5 100.5t113.5 49.5v55h43v-55q109 -5 157 -74l-58 -43q-35 45 -99 49v-159l31 -8q133 -38 133 -136q0 -64 -44 -104t-120 -46v-70zM262 209l-6 1v-149q41 4 62 24.5t21 52.5
q0 50 -77 71zM142 369q0 -28 17 -44t54 -26v146q-35 -6 -53 -26.5t-18 -49.5z" />
    <glyph glyph-name="percent.sc" horiz-adv-x="679" 
d="M535 507l-329 -507h-63l327 507h65zM520 41q32 0 45.5 23t13.5 70q0 48 -13.5 70.5t-45.5 22.5t-45.5 -22.5t-13.5 -70.5q0 -93 59 -93zM520 272q120 0 120 -138t-120 -138t-120 138t120 138zM158 280q33 0 46.5 22.5t13.5 70.5q0 47 -13.5 70t-46.5 23q-59 0 -59 -93
q0 -48 13.5 -70.5t45.5 -22.5zM158 511q120 0 120 -138t-120 -138q-119 0 -119 138t119 138z" />
    <glyph glyph-name="ampersand.sc" horiz-adv-x="549" 
d="M444 270l54 -40l-74 -95l-16 -21l112 -108v-6h-87l-68 66q-74 -74 -170 -74q-69 0 -109 33t-40 85q0 32 19 61.5t39 45.5t54 38l8 5l-15 16q-48 46 -60 74q-10 21 -10 42q0 52 43 87.5t114 35.5q66 0 108 -36t42 -87q0 -36 -24.5 -64t-74.5 -64l-21 -14l91 -88l12 15z
M198 54q61 0 118 59l-102 101l-15 -10q-55 -37 -68 -56q-12 -16 -12 -35q0 -25 22 -42t57 -17zM154 392q0 -34 50 -79l17 -17l25 17q37 25 53 41.5t16 37.5q0 26 -20.5 43.5t-58.5 17.5q-37 0 -59.5 -18t-22.5 -43z" />
    <glyph glyph-name="section.sc" horiz-adv-x="473" 
d="M419 204q0 -52 -57 -90q55 -33 55 -82q0 -50 -47.5 -84t-137.5 -34q-130 0 -185 72l43 48q51 -60 146 -60q99 0 99 48q0 19 -19.5 31t-58.5 24l-83 28q-114 39 -114 114q0 57 54 93q-53 32 -53 82q0 47 46.5 84t131.5 37q116 0 173 -68l-46 -46q-50 53 -133 53
q-39 0 -65 -13.5t-26 -36.5q0 -19 21 -31.5t65 -26.5l65 -21q63 -21 94.5 -49.5t31.5 -71.5zM175 286q-37 -19 -37 -53q0 -23 20 -38t62 -28l81 -27q40 21 40 53q0 25 -21.5 40t-62.5 27z" />
    <glyph glyph-name="paragraph.sc" horiz-adv-x="449" 
d="M182 342h89v-362h-68v137q-83 0 -121 27t-38 85q0 53 34 83t104 30zM291 -170l-39 47q35 18 49.5 40t14.5 60v365h69v-352q0 -37 -6.5 -64t-28 -53.5t-59.5 -42.5z" />
    <glyph glyph-name="parenleft.sc" horiz-adv-x="257" 
d="M221 -145l-57 -22q-115 162 -115 347q0 105 29.5 184t85.5 163l58 -20q-93 -174 -93 -327q0 -161 92 -325z" />
    <glyph glyph-name="slash.sc" horiz-adv-x="305" 
d="M273 507v-9l-167 -498h-74v10l165 497h76z" />
    <glyph glyph-name="parenright.sc" horiz-adv-x="256" 
d="M36 -145q92 164 92 325q0 155 -94 327l58 20q56 -84 85.5 -163t29.5 -184q0 -185 -115 -347z" />
    <glyph glyph-name="bracketleft.sc" horiz-adv-x="284" 
d="M66 522h176v-63h-98v-558h98v-63h-176v684z" />
    <glyph glyph-name="backslash.sc" horiz-adv-x="308" 
d="M31 498v9h76l169 -497v-10h-74z" />
    <glyph glyph-name="bracketright.sc" horiz-adv-x="283" 
d="M41 522h176v-684h-176v63h98v558h-98v63z" />
    <glyph glyph-name="braceleft.sc" horiz-adv-x="280" 
d="M182 409v-147q0 -75 -62 -84q62 -9 62 -84v-147q0 -30 12 -41t41 -11v-57q-69 0 -99.5 23t-30.5 82v145q0 33 -18 47t-56 14v57q39 0 56.5 14t17.5 49v144q0 57 30.5 81t99.5 24v-58q-29 0 -41 -10.5t-12 -40.5z" />
    <glyph glyph-name="bar.sc" horiz-adv-x="183" 
d="M117 -162h-51v684h51v-684z" />
    <glyph glyph-name="braceright.sc" horiz-adv-x="280" 
d="M99 262v147q0 30 -12.5 40.5t-40.5 10.5v58q68 0 99 -24t31 -81v-144q0 -35 17.5 -49t56.5 -14v-57q-39 0 -56.5 -13.5t-17.5 -47.5v-145q0 -59 -30.5 -82t-99.5 -23v57q29 0 41 11t12 41v147q0 76 61 84q-61 8 -61 84z" />
    <glyph glyph-name="zero.sc" horiz-adv-x="507" 
d="M254 59q63 0 91 49t28 146t-28 145.5t-91 48.5q-120 0 -120 -194q0 -97 28.5 -146t91.5 -49zM254 515q102 0 151 -68.5t49 -192.5t-49 -193t-151 -69q-103 0 -152 69t-49 193q0 123 49.5 192t151.5 69z" />
    <glyph glyph-name="one.sc" horiz-adv-x="341" 
d="M265 0h-79v433l-147 -55l-21 61l177 68h70v-507z" />
    <glyph glyph-name="two.sc" horiz-adv-x="447" 
d="M218 515q77 0 123.5 -42t46.5 -109q0 -48 -27.5 -90t-81.5 -95l-120 -115h238v-64h-343v56l172 170q80 77 80 138q0 38 -23 61t-65 23q-43 0 -65.5 -24.5t-22.5 -66.5h-80q0 72 43 115t125 43z" />
    <glyph glyph-name="three.sc" horiz-adv-x="468" 
d="M309 260q44 -8 75.5 -42t31.5 -83q0 -63 -51 -103t-134 -40q-90 0 -135.5 38t-45.5 98h79q0 -31 27 -50t75 -19q47 0 75 21.5t28 58.5q0 41 -32 64.5t-87 23.5h-51v65h51q51 0 80.5 20.5t29.5 59.5q0 34 -25 55t-69 21q-45 0 -69.5 -19.5t-24.5 -49.5h-80q0 59 44 97.5
t130 38.5q80 0 128 -39.5t48 -100.5q0 -44 -28 -74.5t-70 -40.5z" />
    <glyph glyph-name="four.sc" horiz-adv-x="487" 
d="M446 170v-64h-73v-106h-80v106h-259v57l256 344h83v-337h73zM118 170h175v232z" />
    <glyph glyph-name="five.sc" horiz-adv-x="452" 
d="M406 163q0 -74 -49 -122.5t-137 -48.5q-89 0 -134 40t-45 104h79q0 -35 25.5 -56t73.5 -21q52 0 78 28t26 76q0 44 -26 69.5t-75 25.5q-48 0 -92 -29l-64 9l35 269h284v-64h-220l-19 -141q44 22 91 22q74 0 121.5 -41t47.5 -120z" />
    <glyph glyph-name="six.sc" horiz-adv-x="481" 
d="M136 197q0 -60 27 -99t82 -39q51 0 78.5 27.5t27.5 74.5q0 46 -27 72t-79 26q-36 0 -65 -18t-44 -44zM341 379q0 32 -24 50.5t-66 18.5q-59 0 -88.5 -47.5t-29.5 -129.5q18 20 53.5 36t77.5 16q79 0 123.5 -43.5t44.5 -117.5q0 -73 -48 -121.5t-139 -48.5
q-97 0 -145 66.5t-48 178.5q0 129 49.5 203.5t149.5 74.5q83 0 126 -38t43 -98h-79z" />
    <glyph glyph-name="seven.sc" horiz-adv-x="405" 
d="M89 0l199 443h-253v64h342v-56l-201 -451h-87z" />
    <glyph glyph-name="eight.sc" horiz-adv-x="488" 
d="M245 -8q-88 0 -140.5 38t-52.5 107q0 50 30 81.5t75 42.5q-42 12 -68 40.5t-26 72.5q0 65 48.5 103t132.5 38t132.5 -38t48.5 -103q0 -44 -26 -72.5t-68 -40.5q45 -11 75 -42.5t30 -81.5q0 -69 -52 -107t-139 -38zM244 448q-46 0 -73 -20t-27 -58q0 -36 28 -56.5
t72 -20.5t72 20t28 57q0 38 -26.5 58t-73.5 20zM243 59q52 0 81.5 22t29.5 63q0 40 -30.5 62t-80.5 22q-48 0 -78.5 -22t-30.5 -62q0 -41 29.5 -63t79.5 -22z" />
    <glyph glyph-name="nine.sc" horiz-adv-x="482" 
d="M346 309q0 61 -27.5 100t-82.5 39q-51 0 -78.5 -27.5t-27.5 -74.5q0 -46 27.5 -72t78.5 -26q37 0 66 18t44 43zM61 129h79q0 -33 24 -51.5t66 -18.5q59 0 88.5 47.5t29.5 130.5q-18 -20 -53.5 -36.5t-76.5 -16.5q-79 0 -124 44t-45 117t48.5 121.5t138.5 48.5
q98 0 145.5 -66.5t47.5 -178.5q0 -129 -49.5 -203.5t-149.5 -74.5q-83 0 -126 38.5t-43 98.5z" />
    <glyph glyph-name="question.sc" horiz-adv-x="383" 
d="M181 -5q-23 0 -38.5 14t-15.5 36q0 21 15.5 35.5t38.5 14.5t39 -14.5t16 -35.5q0 -22 -16 -36t-39 -14zM184 515q75 0 118 -37.5t43 -94.5q0 -28 -13 -52.5t-31.5 -42.5l-36.5 -36t-31 -40.5t-13 -48.5h-77q0 39 19.5 72t43 52.5t43 44t19.5 48.5q0 28 -21 47.5t-58 19.5
q-36 0 -57 -17t-21 -43l-74 8q0 52 37.5 86t109.5 34z" />
    <glyph glyph-name="a.sc" horiz-adv-x="517" 
d="M414 0l-46 125h-218l-47 -125h-86l194 507h95l196 -507h-88zM259 425l-88 -234h176z" />
    <glyph glyph-name="b.sc" horiz-adv-x="498" 
d="M76 0v507h176q88 0 130.5 -34.5t42.5 -96.5q0 -87 -83 -109q47 -9 79 -40.5t32 -84.5q0 -142 -196 -142h-181zM156 66h96q61 0 89 19.5t28 61.5q0 82 -117 82h-96v-163zM156 294h85q100 0 100 77q0 70 -100 70h-85v-147z" />
    <glyph glyph-name="c.sc" horiz-adv-x="498" 
d="M133 253q0 -193 148 -193q38 0 69 17.5t46 45.5l63 -40q-54 -91 -181 -91q-114 0 -171 68.5t-57 192.5q0 125 57 193.5t171 68.5q126 0 181 -92l-63 -39q-15 28 -46 45.5t-69 17.5q-148 0 -148 -194z" />
    <glyph glyph-name="d.sc" horiz-adv-x="550" 
d="M76 0v507h159q139 0 202 -60t63 -193t-63 -193.5t-202 -60.5h-159zM156 66h75q104 0 145 41.5t41 146.5q0 102 -41.5 144.5t-144.5 42.5h-75v-375z" />
    <glyph glyph-name="e.sc" horiz-adv-x="466" 
d="M157 66h258v-66h-339v507h336v-66h-255v-151h225v-66h-225v-158z" />
    <glyph glyph-name="f.sc" horiz-adv-x="447" 
d="M76 0v507h328v-66h-247v-164h211v-66h-211v-211h-81z" />
    <glyph glyph-name="g.sc" horiz-adv-x="540" 
d="M287 207v66h208q3 -21 3 -42q0 -106 -52 -172.5t-163 -66.5q-115 0 -174.5 67t-59.5 195q0 261 244 261q125 0 176 -89l-61 -39q-41 60 -118 60q-84 0 -120.5 -49.5t-36.5 -143.5q0 -99 36 -146.5t114 -47.5q70 0 101.5 40.5t31.5 106.5h-129z" />
    <glyph glyph-name="h.sc" horiz-adv-x="575" 
d="M418 297v210h81v-507h-81v231h-262v-231h-80v507h80v-210h262z" />
    <glyph glyph-name="i.sc" horiz-adv-x="232" 
d="M76 0v507h81v-507h-81z" />
    <glyph glyph-name="j.sc" horiz-adv-x="414" 
d="M25 72l59 37q28 -49 86 -49q97 0 97 115v332h77v-336q0 -89 -46 -134t-128 -45q-102 0 -145 80z" />
    <glyph glyph-name="k.sc" horiz-adv-x="517" 
d="M236 241l-79 -74v-167h-81v507h81v-239l240 239h98l-204 -210l204 -297h-96z" />
    <glyph glyph-name="l.sc" horiz-adv-x="409" 
d="M157 66h229v-66h-310v507h81v-441z" />
    <glyph glyph-name="m.sc" horiz-adv-x="716" 
d="M359 98l137 409h107l66 -507h-77l-52 414l-139 -414h-88l-135 412l-55 -412h-78l71 507h109z" />
    <glyph glyph-name="n.sc" horiz-adv-x="576" 
d="M420 129v378h81v-507h-84l-260 382v-382h-82l1 507h86z" />
    <glyph glyph-name="o.sc" horiz-adv-x="552" 
d="M133 253q0 -93 32 -143t110 -50q79 0 111.5 50t32.5 143t-32.5 143.5t-110.5 50.5q-143 0 -143 -194zM502 253q0 -120 -55 -190.5t-172 -70.5q-116 0 -170.5 70.5t-54.5 190.5t54.5 191t171.5 71t171.5 -71t54.5 -191z" />
    <glyph glyph-name="p.sc" horiz-adv-x="482" 
d="M255 194h-98v-194h-81v507h179q94 0 141 -40.5t47 -116.5q0 -75 -47 -115.5t-141 -40.5zM157 441v-182h93q110 0 110 91t-110 91h-93z" />
    <glyph glyph-name="q.sc" horiz-adv-x="552" 
d="M502 253q0 -93 -33 -157l63 -55l-45 -49l-58 51q-56 -51 -154 -51q-116 0 -170.5 70.5t-54.5 190.5t54.5 191t171.5 71t171.5 -71t54.5 -191zM133 253q0 -93 32 -143t110 -50q63 0 97 34l-128 115l43 47l119 -105q13 42 13 102q0 93 -32.5 143.5t-110.5 50.5
q-143 0 -143 -194z" />
    <glyph glyph-name="r.sc" horiz-adv-x="509" 
d="M76 0v507h194q192 0 192 -145q0 -58 -35.5 -94.5t-101.5 -44.5l150 -223h-92l-141 216h-85v-216h-81zM378 362q0 79 -115 79h-106v-159h106q62 0 88.5 20t26.5 60z" />
    <glyph glyph-name="s.sc" horiz-adv-x="462" 
d="M410 440l-58 -43q-35 50 -114 50q-46 0 -71 -22t-25 -56q0 -28 17 -44t54 -26l72 -20q132 -38 132 -136q0 -69 -51.5 -110t-138.5 -41q-141 0 -190 94l58 43q17 -33 46 -51t86 -18q52 0 79 21t27 57q0 50 -76 71l-72 20q-127 37 -127 135q0 64 46 107.5t134 43.5
q122 0 172 -75z" />
    <glyph glyph-name="t.sc" horiz-adv-x="455" 
d="M32 507h390v-66h-154v-441h-81v441h-155v66z" />
    <glyph glyph-name="u.sc" horiz-adv-x="550" 
d="M275 -8q-96 0 -150.5 48.5t-54.5 150.5v316h81v-316q0 -68 30.5 -99t93.5 -31q62 0 93 31t31 99v316h81v-316q0 -103 -55 -151t-150 -48z" />
    <glyph glyph-name="v.sc" horiz-adv-x="506" 
d="M400 507h85l-180 -507h-104l-180 507h85l148 -425z" />
    <glyph glyph-name="w.sc" horiz-adv-x="808" 
d="M357 507h93l126 -417l121 417h84l-152 -507h-101l-124 399l-125 -399h-99l-153 507h84l121 -417z" />
    <glyph glyph-name="x.sc" horiz-adv-x="493" 
d="M29 507h92l125 -193l125 193h92l-164 -245l171 -262h-93l-131 204l-131 -204h-93l170 262z" />
    <glyph glyph-name="y.sc" horiz-adv-x="488" 
d="M284 0h-81v200l-186 307h89l138 -235l137 235h91l-188 -307v-200z" />
    <glyph glyph-name="z.sc" horiz-adv-x="442" 
d="M393 507v-59l-259 -382h266v-66h-362v57l260 384h-246v66h341z" />
    <glyph glyph-name="agrave.sc" horiz-adv-x="517" 
d="M414 0l-46 125h-218l-47 -125h-86l194 507h95l196 -507h-88zM259 425l-88 -234h176zM137 726h82l76 -155h-71z" />
    <glyph glyph-name="aacute.sc" horiz-adv-x="517" 
d="M414 0l-46 125h-218l-47 -125h-86l194 507h95l196 -507h-88zM259 425l-88 -234h176zM300 726h82l-87 -155h-71z" />
    <glyph glyph-name="acircumflex.sc" horiz-adv-x="517" 
d="M414 0l-46 125h-218l-47 -125h-86l194 507h95l196 -507h-88zM259 425l-88 -234h176zM219 726h81l102 -156h-74l-69 101l-67 -101h-74z" />
    <glyph glyph-name="atilde.sc" horiz-adv-x="517" 
d="M414 0l-46 125h-218l-47 -125h-86l194 507h95l196 -507h-88zM259 425l-88 -234h176zM399 665l-6 -63q-33 26 -64 26q-22 0 -67 -19.5t-75 -19.5q-42 0 -67 25l6 61q24 -24 61 -24q23 0 66 19t76 19q36 0 70 -24z" />
    <glyph glyph-name="adieresis.sc" horiz-adv-x="517" 
d="M414 0l-46 125h-218l-47 -125h-86l194 507h95l196 -507h-88zM259 425l-88 -234h176zM169 589q-55 0 -55 53q0 54 55 54q23 0 38.5 -13.5t15.5 -40.5t-15.5 -40t-38.5 -13zM351 589q-55 0 -55 53q0 54 55 54q23 0 38.5 -13.5t15.5 -40.5t-15.5 -40t-38.5 -13z" />
    <glyph glyph-name="amacron.sc" horiz-adv-x="517" 
d="M414 0l-46 125h-218l-47 -125h-86l194 507h95l196 -507h-88zM259 425l-88 -234h176zM120 666h279v-66h-279v66z" />
    <glyph glyph-name="abreve.sc" horiz-adv-x="517" 
d="M414 0l-46 125h-218l-47 -125h-86l194 507h95l196 -507h-88zM259 425l-88 -234h176zM339 703h58q0 -61 -37.5 -99.5t-101.5 -38.5q-62 0 -99 38.5t-37 99.5h56q2 -34 23.5 -55.5t56.5 -21.5q36 0 57.5 21.5t23.5 55.5z" />
    <glyph glyph-name="aring.sc" horiz-adv-x="517" 
d="M414 0l-46 125h-218l-47 -125h-86l194 507h95l196 -507h-88zM259 425l-88 -234h176zM155 650q0 41 28 68t75 27q49 0 77.5 -27t28.5 -68q0 -40 -28.5 -67.5t-77.5 -27.5q-47 0 -75 27.5t-28 67.5zM208 650q0 -22 13 -35t37 -13q25 0 39 13t14 35t-14 35.5t-39 13.5
q-23 0 -36.5 -13.5t-13.5 -35.5z" />
    <glyph glyph-name="aringacute.sc" horiz-adv-x="517" 
d="M155 650q0 35 20.5 59t55.5 31l58 80h82l-68 -84q28 -10 43.5 -33.5t15.5 -52.5q0 -40 -28.5 -67t-76.5 -27q-47 0 -74.5 27t-27.5 67zM206 650q0 -22 14 -35.5t37 -13.5q25 0 39 13.5t14 35.5t-14 36t-39 14q-24 0 -37.5 -14t-13.5 -36zM414 0l-46 125h-218l-47 -125
h-86l194 507h95l196 -507h-88zM259 425l-88 -234h176z" />
    <glyph glyph-name="aogonek.sc" horiz-adv-x="516" 
d="M501 0l-75 -58q-33 -27 -33 -54q0 -16 11.5 -27.5t32.5 -11.5q29 0 64 26v-69q-40 -22 -83 -22q-49 0 -77.5 24.5t-28.5 65.5q0 53 54 96l45 36l-44 119h-218l-47 -125h-86l194 507h95zM258 425l-88 -234h176z" />
    <glyph glyph-name="ae.sc" horiz-adv-x="798" 
d="M489 66h258v-66h-340v125h-211l-93 -125h-99l387 507h353v-66h-255v-151h224v-66h-224v-158zM246 191h161v215z" />
    <glyph glyph-name="aeacute.sc" horiz-adv-x="798" 
d="M582 726h82l-87 -155h-71zM489 66h258v-66h-340v125h-211l-93 -125h-99l387 507h353v-66h-255v-151h224v-66h-224v-158zM246 191h161v215z" />
    <glyph glyph-name="cacute.sc" horiz-adv-x="498" 
d="M133 253q0 -193 148 -193q38 0 69 17.5t46 45.5l63 -40q-54 -91 -181 -91q-114 0 -171 68.5t-57 192.5q0 125 57 193.5t171 68.5q126 0 181 -92l-63 -39q-15 28 -46 45.5t-69 17.5q-148 0 -148 -194zM308 726h82l-87 -155h-71z" />
    <glyph glyph-name="ccircumflex.sc" horiz-adv-x="498" 
d="M133 253q0 -193 148 -193q38 0 69 17.5t46 45.5l63 -40q-54 -91 -181 -91q-114 0 -171 68.5t-57 192.5q0 125 57 193.5t171 68.5q126 0 181 -92l-63 -39q-15 28 -46 45.5t-69 17.5q-148 0 -148 -194zM231 726h81l102 -156h-74l-69 101l-67 -101h-74z" />
    <glyph glyph-name="ccaron.sc" horiz-adv-x="498" 
d="M133 253q0 -193 148 -193q38 0 69 17.5t46 45.5l63 -40q-54 -91 -181 -91q-114 0 -171 68.5t-57 192.5q0 125 57 193.5t171 68.5q126 0 181 -92l-63 -39q-15 28 -46 45.5t-69 17.5q-148 0 -148 -194zM312 570h-81l-101 156h74l68 -101l68 101h74z" />
    <glyph glyph-name="cdotaccent.sc" horiz-adv-x="498" 
d="M133 253q0 -193 148 -193q38 0 69 17.5t46 45.5l63 -40q-54 -91 -181 -91q-114 0 -171 68.5t-57 192.5q0 125 57 193.5t171 68.5q126 0 181 -92l-63 -39q-15 28 -46 45.5t-69 17.5q-148 0 -148 -194zM272 589q-55 0 -55 53q0 54 55 54q23 0 38.5 -13.5t15.5 -40.5
t-15.5 -40t-38.5 -13z" />
    <glyph glyph-name="ccedilla.sc" horiz-adv-x="498" 
d="M133 253q0 -193 148 -193q38 0 69 17.5t46 45.5l63 -40q-48 -79 -152 -89l-18 -48q92 0 92 -81q0 -34 -27.5 -57.5t-75.5 -23.5q-43 0 -87 22v58q38 -28 82 -28q19 0 30 8t11 21q0 34 -54 34h-36l-4 6l30 88q-100 8 -150 75.5t-50 184.5q0 125 57 193.5t171 68.5
q126 0 181 -92l-63 -39q-15 28 -46 45.5t-69 17.5q-148 0 -148 -194z" />
    <glyph glyph-name="dcaron.sc" horiz-adv-x="550" 
d="M76 0v507h159q139 0 202 -60t63 -193t-63 -193.5t-202 -60.5h-159zM156 66h75q104 0 145 41.5t41 146.5q0 102 -41.5 144.5t-144.5 42.5h-75v-375zM297 570h-81l-101 156h74l68 -101l68 101h74z" />
    <glyph glyph-name="dcroat.sc" horiz-adv-x="559" 
d="M23 290h62v217h159q139 0 202 -60t63 -193t-63 -193.5t-202 -60.5h-159v227h-62v63zM165 66h75q104 0 145 41.5t41 146.5q0 102 -41.5 144.5t-144.5 42.5h-75v-151h109v-63h-109v-161z" />
    <glyph glyph-name="eth.sc" horiz-adv-x="559" 
d="M23 290h62v217h159q139 0 202 -60t63 -193t-63 -193.5t-202 -60.5h-159v227h-62v63zM165 66h75q104 0 145 41.5t41 146.5q0 102 -41.5 144.5t-144.5 42.5h-75v-151h109v-63h-109v-161z" />
    <glyph glyph-name="egrave.sc" horiz-adv-x="465" 
d="M157 66h258v-66h-339v507h336v-66h-255v-151h225v-66h-225v-158zM124 726h82l76 -155h-71z" />
    <glyph glyph-name="eacute.sc" horiz-adv-x="465" 
d="M157 66h258v-66h-339v507h336v-66h-255v-151h225v-66h-225v-158zM280 726h82l-87 -155h-71z" />
    <glyph glyph-name="ecircumflex.sc" horiz-adv-x="465" 
d="M157 66h258v-66h-339v507h336v-66h-255v-151h225v-66h-225v-158zM201 726h81l102 -156h-74l-69 101l-67 -101h-74z" />
    <glyph glyph-name="ecaron.sc" horiz-adv-x="465" 
d="M157 66h258v-66h-339v507h336v-66h-255v-151h225v-66h-225v-158zM282 570h-81l-101 156h74l68 -101l68 101h74z" />
    <glyph glyph-name="edieresis.sc" horiz-adv-x="465" 
d="M157 66h258v-66h-339v507h336v-66h-255v-151h225v-66h-225v-158zM151 589q-55 0 -55 53q0 54 55 54q23 0 38.5 -13.5t15.5 -40.5t-15.5 -40t-38.5 -13zM333 589q-55 0 -55 53q0 54 55 54q23 0 38.5 -13.5t15.5 -40.5t-15.5 -40t-38.5 -13z" />
    <glyph glyph-name="emacron.sc" horiz-adv-x="465" 
d="M157 66h258v-66h-339v507h336v-66h-255v-151h225v-66h-225v-158zM102 666h279v-66h-279v66z" />
    <glyph glyph-name="ebreve.sc" horiz-adv-x="465" 
d="M157 66h258v-66h-339v507h336v-66h-255v-151h225v-66h-225v-158zM322 703h58q0 -61 -37.5 -99.5t-101.5 -38.5q-62 0 -99 38.5t-37 99.5h56q2 -34 23.5 -55.5t56.5 -21.5q36 0 57.5 21.5t23.5 55.5z" />
    <glyph glyph-name="edotaccent.sc" horiz-adv-x="465" 
d="M157 66h258v-66h-339v507h336v-66h-255v-151h225v-66h-225v-158zM242 589q-55 0 -55 53q0 54 55 54q23 0 38.5 -13.5t15.5 -40.5t-15.5 -40t-38.5 -13z" />
    <glyph glyph-name="eogonek.sc" horiz-adv-x="465" 
d="M415 0l-75 -58q-33 -27 -33 -54q0 -16 11.5 -27.5t32.5 -11.5q29 0 64 26v-69q-40 -22 -83 -22q-49 0 -77.5 24.5t-28.5 65.5q0 53 54 96l37 30h-242v507h336v-66h-255v-151h225v-66h-225v-158h258v-66h1z" />
    <glyph glyph-name="gcircumflex.sc" horiz-adv-x="540" 
d="M287 207v66h208q3 -21 3 -42q0 -106 -52 -172.5t-163 -66.5q-115 0 -174.5 67t-59.5 195q0 261 244 261q125 0 176 -89l-61 -39q-41 60 -118 60q-84 0 -120.5 -49.5t-36.5 -143.5q0 -99 36 -146.5t114 -47.5q70 0 101.5 40.5t31.5 106.5h-129zM238 726h81l102 -156h-74
l-69 101l-67 -101h-74z" />
    <glyph glyph-name="gbreve.sc" horiz-adv-x="540" 
d="M287 207v66h208q3 -21 3 -42q0 -106 -52 -172.5t-163 -66.5q-115 0 -174.5 67t-59.5 195q0 261 244 261q125 0 176 -89l-61 -39q-41 60 -118 60q-84 0 -120.5 -49.5t-36.5 -143.5q0 -99 36 -146.5t114 -47.5q70 0 101.5 40.5t31.5 106.5h-129zM358 703h58
q0 -61 -37.5 -99.5t-101.5 -38.5q-62 0 -99 38.5t-37 99.5h56q2 -34 23.5 -55.5t56.5 -21.5q36 0 57.5 21.5t23.5 55.5z" />
    <glyph glyph-name="gdotaccent.sc" horiz-adv-x="540" 
d="M287 207v66h208q3 -21 3 -42q0 -106 -52 -172.5t-163 -66.5q-115 0 -174.5 67t-59.5 195q0 261 244 261q125 0 176 -89l-61 -39q-41 60 -118 60q-84 0 -120.5 -49.5t-36.5 -143.5q0 -99 36 -146.5t114 -47.5q70 0 101.5 40.5t31.5 106.5h-129zM279 589q-55 0 -55 53
q0 54 55 54q23 0 38.5 -13.5t15.5 -40.5t-15.5 -40t-38.5 -13z" />
    <glyph glyph-name="gcommaaccent.sc" horiz-adv-x="540" 
d="M287 207v66h208q3 -21 3 -42q0 -106 -52 -172.5t-163 -66.5q-115 0 -174.5 67t-59.5 195q0 261 244 261q125 0 176 -89l-61 -39q-41 60 -118 60q-84 0 -120.5 -49.5t-36.5 -143.5q0 -99 36 -146.5t114 -47.5q70 0 101.5 40.5t31.5 106.5h-129zM329 -68l-54 -148h-62
l25 148h91z" />
    <glyph glyph-name="hcircumflex.sc" horiz-adv-x="575" 
d="M418 297v210h81v-507h-81v231h-262v-231h-80v507h80v-210h262zM246 726h81l102 -156h-74l-69 101l-67 -101h-74z" />
    <glyph glyph-name="hbar.sc" horiz-adv-x="576" 
d="M36 428h40v79h81v-79h262v79h81v-79h39v-57h-39v-371h-81v231h-262v-231h-81v371h-40v57zM419 297v74h-262v-74h262z" />
    <glyph glyph-name="igrave.sc" horiz-adv-x="232" 
d="M76 0v507h81v-507h-81zM-6 726h82l76 -155h-71z" />
    <glyph glyph-name="iacute.sc" horiz-adv-x="232" 
d="M76 0v507h81v-507h-81zM157 726h82l-87 -155h-71z" />
    <glyph glyph-name="ibreve.sc" horiz-adv-x="232" 
d="M76 0v507h81v-507h-81zM196 703h58q0 -61 -37.5 -99.5t-101.5 -38.5q-62 0 -99 38.5t-37 99.5h56q2 -34 23.5 -55.5t56.5 -21.5q36 0 57.5 21.5t23.5 55.5z" />
    <glyph glyph-name="icircumflex.sc" horiz-adv-x="232" 
d="M76 0v507h81v-507h-81zM76 726h81l102 -156h-74l-69 101l-67 -101h-74z" />
    <glyph glyph-name="itilde.sc" horiz-adv-x="232" 
d="M76 0v507h81v-507h-81zM256 665l-6 -63q-33 26 -64 26q-22 0 -67 -19.5t-75 -19.5q-42 0 -67 25l6 61q24 -24 61 -24q24 0 66.5 19t75.5 19q36 0 70 -24z" />
    <glyph glyph-name="idieresis.sc" horiz-adv-x="232" 
d="M76 0v507h81v-507h-81zM25 589q-55 0 -55 53q0 54 55 54q23 0 38.5 -13.5t15.5 -40.5t-15.5 -40t-38.5 -13zM207 589q-55 0 -55 53q0 54 55 54q23 0 38.5 -13.5t15.5 -40.5t-15.5 -40t-38.5 -13z" />
    <glyph glyph-name="imacron.sc" horiz-adv-x="232" 
d="M76 0v507h81v-507h-81zM-24 666h279v-66h-279v66z" />
    <glyph glyph-name="idotaccent.sc" horiz-adv-x="232" 
d="M76 0v507h81v-507h-81zM116 589q-55 0 -55 53q0 54 55 54q23 0 38.5 -13.5t15.5 -40.5t-15.5 -40t-38.5 -13z" />
    <glyph glyph-name="iogonek.sc" horiz-adv-x="232" 
d="M157 0l-75 -58q-33 -27 -33 -54q0 -16 11.5 -27.5t32.5 -11.5q29 0 64 26v-69q-40 -22 -83 -22q-49 0 -77.5 24.5t-28.5 65.5q0 53 54 96l54 43v494h81v-507z" />
    <glyph glyph-name="jcircumflex.sc" horiz-adv-x="415" 
d="M26 72l59 37q28 -49 86 -49q97 0 97 115v332h77v-336q0 -89 -46 -134t-128 -45q-102 0 -145 80zM264 726h81l102 -156h-74l-69 101l-67 -101h-74z" />
    <glyph glyph-name="kcommaaccent.sc" horiz-adv-x="517" 
d="M236 241l-79 -74v-167h-81v507h81v-239l240 239h98l-204 -210l204 -297h-96zM299 -68l-54 -148h-62l25 148h91z" />
    <glyph glyph-name="lacute.sc" horiz-adv-x="409" 
d="M157 66h229v-66h-310v507h81v-441zM158 726h82l-87 -155h-71z" />
    <glyph glyph-name="lcaron.sc" horiz-adv-x="444" 
d="M157 66h229v-66h-310v507h81v-441zM418 507l-52 -156h-60l25 156h87z" />
    <glyph glyph-name="lcommaaccent.sc" horiz-adv-x="409" 
d="M157 66h229v-66h-310v507h81v-441zM268 -68l-54 -148h-62l25 148h91z" />
    <glyph glyph-name="lslash.sc" horiz-adv-x="418" 
d="M165 66h229v-66h-310v196l-59 -25v66l59 25v245h81v-210l74 32v-67l-74 -32v-164z" />
    <glyph glyph-name="ldot.sc" horiz-adv-x="443" 
d="M157 66h229v-66h-310v507h81v-441zM332 231q-55 0 -55 53q0 54 55 54q23 0 38.5 -13.5t15.5 -40.5t-15.5 -40t-38.5 -13z" />
    <glyph glyph-name="nacute.sc" horiz-adv-x="576" 
d="M420 129v378h81v-507h-84l-260 382v-382h-82l1 507h86zM329 726h82l-87 -155h-71z" />
    <glyph glyph-name="ncaron.sc" horiz-adv-x="576" 
d="M420 129v378h81v-507h-84l-260 382v-382h-82l1 507h86zM329 570h-81l-101 156h74l68 -101l68 101h74z" />
    <glyph glyph-name="ntilde.sc" horiz-adv-x="576" 
d="M420 129v378h81v-507h-84l-260 382v-382h-82l1 507h86zM428 665l-6 -63q-33 26 -64 26q-22 0 -67 -19.5t-75 -19.5q-42 0 -67 25l6 61q24 -24 61 -24q24 0 67 19t75 19q36 0 70 -24z" />
    <glyph glyph-name="ncommaaccent.sc" horiz-adv-x="576" 
d="M420 129v378h81v-507h-84l-260 382v-382h-82l1 507h86zM337 -68l-54 -148h-62l25 148h91z" />
    <glyph glyph-name="ograve.sc" horiz-adv-x="552" 
d="M133 253q0 -93 32 -143t110 -50q79 0 111.5 50t32.5 143t-32.5 143.5t-110.5 50.5q-143 0 -143 -194zM502 253q0 -120 -55 -190.5t-172 -70.5q-116 0 -170.5 70.5t-54.5 190.5t54.5 191t171.5 71t171.5 -71t54.5 -191zM158 726h82l76 -155h-71z" />
    <glyph glyph-name="oacute.sc" horiz-adv-x="552" 
d="M133 253q0 -93 32 -143t110 -50q79 0 111.5 50t32.5 143t-32.5 143.5t-110.5 50.5q-143 0 -143 -194zM502 253q0 -120 -55 -190.5t-172 -70.5q-116 0 -170.5 70.5t-54.5 190.5t54.5 191t171.5 71t171.5 -71t54.5 -191zM315 726h82l-87 -155h-71z" />
    <glyph glyph-name="ocircumflex.sc" horiz-adv-x="552" 
d="M133 253q0 -93 32 -143t110 -50q79 0 111.5 50t32.5 143t-32.5 143.5t-110.5 50.5q-143 0 -143 -194zM502 253q0 -120 -55 -190.5t-172 -70.5q-116 0 -170.5 70.5t-54.5 190.5t54.5 191t171.5 71t171.5 -71t54.5 -191zM235 726h81l102 -156h-74l-69 101l-67 -101h-74z
" />
    <glyph glyph-name="otilde.sc" horiz-adv-x="552" 
d="M133 253q0 -93 32 -143t110 -50q79 0 111.5 50t32.5 143t-32.5 143.5t-110.5 50.5q-143 0 -143 -194zM502 253q0 -120 -55 -190.5t-172 -70.5q-116 0 -170.5 70.5t-54.5 190.5t54.5 191t171.5 71t171.5 -71t54.5 -191zM415 665l-6 -63q-33 26 -64 26q-22 0 -67 -19.5
t-75 -19.5q-42 0 -67 25l6 61q24 -24 61 -24q23 0 66 19t76 19q36 0 70 -24z" />
    <glyph glyph-name="odieresis.sc" horiz-adv-x="552" 
d="M133 253q0 -93 32 -143t110 -50q79 0 111.5 50t32.5 143t-32.5 143.5t-110.5 50.5q-143 0 -143 -194zM502 253q0 -120 -55 -190.5t-172 -70.5q-116 0 -170.5 70.5t-54.5 190.5t54.5 191t171.5 71t171.5 -71t54.5 -191zM185 589q-55 0 -55 53q0 54 55 54q23 0 38.5 -13.5
t15.5 -40.5t-15.5 -40t-38.5 -13zM367 589q-55 0 -55 53q0 54 55 54q23 0 38.5 -13.5t15.5 -40.5t-15.5 -40t-38.5 -13z" />
    <glyph glyph-name="omacron.sc" horiz-adv-x="552" 
d="M133 253q0 -93 32 -143t110 -50q79 0 111.5 50t32.5 143t-32.5 143.5t-110.5 50.5q-143 0 -143 -194zM502 253q0 -120 -55 -190.5t-172 -70.5q-116 0 -170.5 70.5t-54.5 190.5t54.5 191t171.5 71t171.5 -71t54.5 -191zM136 666h279v-66h-279v66z" />
    <glyph glyph-name="obreve.sc" horiz-adv-x="552" 
d="M133 253q0 -93 32 -143t110 -50q79 0 111.5 50t32.5 143t-32.5 143.5t-110.5 50.5q-143 0 -143 -194zM502 253q0 -120 -55 -190.5t-172 -70.5q-116 0 -170.5 70.5t-54.5 190.5t54.5 191t171.5 71t171.5 -71t54.5 -191zM356 703h58q0 -61 -37.5 -99.5t-101.5 -38.5
q-62 0 -99 38.5t-37 99.5h56q2 -34 23.5 -55.5t56.5 -21.5q36 0 57.5 21.5t23.5 55.5z" />
    <glyph glyph-name="ohungarumlaut.sc" horiz-adv-x="552" 
d="M133 253q0 -93 32 -143t110 -50q79 0 111.5 50t32.5 143t-32.5 143.5t-110.5 50.5q-143 0 -143 -194zM502 253q0 -120 -55 -190.5t-172 -70.5q-116 0 -170.5 70.5t-54.5 190.5t54.5 191t171.5 71t171.5 -71t54.5 -191zM236 726h82l-87 -155h-71zM390 726h82l-87 -155h-71
z" />
    <glyph glyph-name="oslash.sc" horiz-adv-x="552" 
d="M502 253q0 -120 -55 -190.5t-172 -70.5q-85 0 -138 39l-23 -31h-69l53 70q-48 65 -48 183q0 120 54.5 191t171.5 71q81 0 133 -36l22 28h71l-51 -67q51 -68 51 -187zM419 253q0 74 -20 120l-217 -283q33 -30 93 -30q79 0 111.5 50t32.5 143zM133 253q0 -71 17 -115
l214 282q-33 27 -88 27q-143 0 -143 -194z" />
    <glyph glyph-name="oslashacute.sc" horiz-adv-x="552" 
d="M312 726h82l-87 -155h-71zM502 253q0 -120 -55 -190.5t-172 -70.5q-85 0 -138 39l-23 -31h-69l53 70q-48 65 -48 183q0 120 54.5 191t171.5 71q81 0 133 -36l22 28h71l-51 -67q51 -68 51 -187zM419 253q0 74 -20 120l-217 -283q33 -30 93 -30q79 0 111.5 50t32.5 143z
M133 253q0 -71 17 -115l214 282q-33 27 -88 27q-143 0 -143 -194z" />
    <glyph glyph-name="oe.sc" horiz-adv-x="732" 
d="M423 66h259v-66h-330q-35 -8 -77 -8q-116 0 -170.5 70.5t-54.5 190.5t54.5 191t171.5 71q40 0 77 -8h326v-66h-256v-151h225v-66h-225v-158zM275 60q40 0 67 9v367q-28 11 -66 11q-143 0 -143 -194q0 -93 32 -143t110 -50z" />
    <glyph glyph-name="racute.sc" horiz-adv-x="508" 
d="M76 0v507h194q192 0 192 -145q0 -58 -35.5 -94.5t-101.5 -44.5l150 -223h-92l-141 216h-85v-216h-81zM378 362q0 79 -115 79h-106v-159h106q62 0 88.5 20t26.5 60zM274 726h82l-87 -155h-71z" />
    <glyph glyph-name="rcaron.sc" horiz-adv-x="508" 
d="M76 0v507h194q192 0 192 -145q0 -58 -35.5 -94.5t-101.5 -44.5l150 -223h-92l-141 216h-85v-216h-81zM378 362q0 79 -115 79h-106v-159h106q62 0 88.5 20t26.5 60zM275 570h-81l-101 156h74l68 -101l68 101h74z" />
    <glyph glyph-name="rcommaaccent.sc" horiz-adv-x="509" 
d="M76 0v507h194q192 0 192 -145q0 -58 -35.5 -94.5t-101.5 -44.5l150 -223h-92l-141 216h-85v-216h-81zM378 362q0 79 -115 79h-106v-159h106q62 0 88.5 20t26.5 60zM291 -68l-54 -148h-62l25 148h91z" />
    <glyph glyph-name="sacute.sc" horiz-adv-x="462" 
d="M410 440l-58 -43q-35 50 -114 50q-46 0 -71 -22t-25 -56q0 -28 17 -44t54 -26l72 -20q132 -38 132 -136q0 -69 -51.5 -110t-138.5 -41q-141 0 -190 94l58 43q17 -33 46 -51t86 -18q52 0 79 21t27 57q0 50 -76 71l-72 20q-127 37 -127 135q0 64 46 107.5t134 43.5
q122 0 172 -75zM274 726h82l-87 -155h-71z" />
    <glyph glyph-name="scircumflex.sc" horiz-adv-x="462" 
d="M410 440l-58 -43q-35 50 -114 50q-46 0 -71 -22t-25 -56q0 -28 17 -44t54 -26l72 -20q132 -38 132 -136q0 -69 -51.5 -110t-138.5 -41q-141 0 -190 94l58 43q17 -33 46 -51t86 -18q52 0 79 21t27 57q0 50 -76 71l-72 20q-127 37 -127 135q0 64 46 107.5t134 43.5
q122 0 172 -75zM192 726h81l102 -156h-74l-69 101l-67 -101h-74z" />
    <glyph glyph-name="scaron.sc" horiz-adv-x="462" 
d="M410 440l-58 -43q-35 50 -114 50q-46 0 -71 -22t-25 -56q0 -28 17 -44t54 -26l72 -20q132 -38 132 -136q0 -69 -51.5 -110t-138.5 -41q-141 0 -190 94l58 43q17 -33 46 -51t86 -18q52 0 79 21t27 57q0 50 -76 71l-72 20q-127 37 -127 135q0 64 46 107.5t134 43.5
q122 0 172 -75zM273 570h-81l-101 156h74l68 -101l68 101h74z" />
    <glyph glyph-name="scedilla.sc" horiz-adv-x="462" 
d="M410 440l-58 -43q-35 50 -114 50q-46 0 -71 -22t-25 -56q0 -28 17 -44t54 -26l72 -20q132 -38 132 -136q0 -63 -42 -102t-114 -47l-18 -48q92 0 92 -81q0 -34 -27.5 -57.5t-75.5 -23.5q-43 0 -87 22v58q38 -28 82 -28q19 0 30 8t11 21q0 34 -54 34h-36l-4 6l30 88
q-125 8 -167 93l58 43q17 -33 46 -51t86 -18q52 0 79 21t27 57q0 50 -76 71l-72 20q-127 37 -127 135q0 64 46 107.5t134 43.5q122 0 172 -75z" />
    <glyph glyph-name="scommaaccent.sc" horiz-adv-x="462" 
d="M410 440l-58 -43q-35 50 -114 50q-46 0 -71 -22t-25 -56q0 -28 17 -44t54 -26l72 -20q132 -38 132 -136q0 -69 -51.5 -110t-138.5 -41q-141 0 -190 94l58 43q17 -33 46 -51t86 -18q52 0 79 21t27 57q0 50 -76 71l-72 20q-127 37 -127 135q0 64 46 107.5t134 43.5
q122 0 172 -75zM284 -68l-54 -148h-62l25 148h91z" />
    <glyph glyph-name="tcaron.sc" horiz-adv-x="455" 
d="M32 507h390v-66h-154v-441h-81v441h-155v66zM268 570h-81l-101 156h74l68 -101l68 101h74z" />
    <glyph glyph-name="tcommaaccent.sc" horiz-adv-x="455" 
d="M32 507h390v-66h-154v-441h-12l-21 -54q92 0 92 -81q0 -34 -27.5 -57.5t-75.5 -23.5q-43 0 -87 22v58q38 -28 82 -28q19 0 30 8t11 21q0 34 -54 34h-36l-4 6l33 95h-12v441h-155v66z" />
    <glyph glyph-name="uni021A.sc" horiz-adv-x="458" 
d="M273 -68l-54 -148h-62l25 148h91zM34 507h390v-66h-154v-441h-81v441h-155v66z" />
    <glyph glyph-name="tbar.sc" horiz-adv-x="461" 
d="M105 277h85v164h-155v66h390v-66h-154v-164h85v-63h-85v-214h-81v214h-85v63z" />
    <glyph glyph-name="thorn.sc" horiz-adv-x="481" 
d="M255 97h-98v-97h-81v507h81v-97h98q94 0 141 -40.5t47 -116.5q0 -75 -47 -115.5t-141 -40.5zM157 344v-182h93q110 0 110 91t-110 91h-93z" />
    <glyph glyph-name="ugrave.sc" horiz-adv-x="550" 
d="M275 -8q-96 0 -150.5 48.5t-54.5 150.5v316h81v-316q0 -68 30.5 -99t93.5 -31q62 0 93 31t31 99v316h81v-316q0 -103 -55 -151t-150 -48zM155 726h82l76 -155h-71z" />
    <glyph glyph-name="uacute.sc" horiz-adv-x="550" 
d="M275 -8q-96 0 -150.5 48.5t-54.5 150.5v316h81v-316q0 -68 30.5 -99t93.5 -31q62 0 93 31t31 99v316h81v-316q0 -103 -55 -151t-150 -48zM313 726h82l-87 -155h-71z" />
    <glyph glyph-name="ucircumflex.sc" horiz-adv-x="550" 
d="M275 -8q-96 0 -150.5 48.5t-54.5 150.5v316h81v-316q0 -68 30.5 -99t93.5 -31q62 0 93 31t31 99v316h81v-316q0 -103 -55 -151t-150 -48zM234 726h81l102 -156h-74l-69 101l-67 -101h-74z" />
    <glyph glyph-name="utilde.sc" horiz-adv-x="550" 
d="M275 -8q-96 0 -150.5 48.5t-54.5 150.5v316h81v-316q0 -68 30.5 -99t93.5 -31q62 0 93 31t31 99v316h81v-316q0 -103 -55 -151t-150 -48zM414 665l-6 -63q-33 26 -64 26q-22 0 -67 -19.5t-75 -19.5q-42 0 -67 25l6 61q24 -24 61 -24q24 0 66.5 19t75.5 19q36 0 70 -24z
" />
    <glyph glyph-name="udieresis.sc" horiz-adv-x="550" 
d="M275 -8q-96 0 -150.5 48.5t-54.5 150.5v316h81v-316q0 -68 30.5 -99t93.5 -31q62 0 93 31t31 99v316h81v-316q0 -103 -55 -151t-150 -48zM184 589q-55 0 -55 53q0 54 55 54q23 0 38.5 -13.5t15.5 -40.5t-15.5 -40t-38.5 -13zM366 589q-55 0 -55 53q0 54 55 54
q23 0 38.5 -13.5t15.5 -40.5t-15.5 -40t-38.5 -13z" />
    <glyph glyph-name="umacron.sc" horiz-adv-x="550" 
d="M275 -8q-96 0 -150.5 48.5t-54.5 150.5v316h81v-316q0 -68 30.5 -99t93.5 -31q62 0 93 31t31 99v316h81v-316q0 -103 -55 -151t-150 -48zM135 666h279v-66h-279v66z" />
    <glyph glyph-name="ubreve.sc" horiz-adv-x="550" 
d="M275 -8q-96 0 -150.5 48.5t-54.5 150.5v316h81v-316q0 -68 30.5 -99t93.5 -31q62 0 93 31t31 99v316h81v-316q0 -103 -55 -151t-150 -48zM355 703h58q0 -61 -37.5 -99.5t-101.5 -38.5q-62 0 -99 38.5t-37 99.5h56q2 -34 23.5 -55.5t56.5 -21.5q36 0 57.5 21.5t23.5 55.5z
" />
    <glyph glyph-name="uring.sc" horiz-adv-x="550" 
d="M275 -8q-96 0 -150.5 48.5t-54.5 150.5v316h81v-316q0 -68 30.5 -99t93.5 -31q62 0 93 31t31 99v316h81v-316q0 -103 -55 -151t-150 -48zM171 650q0 41 28 68t75 27q49 0 77.5 -27t28.5 -68q0 -40 -28.5 -67.5t-77.5 -27.5q-47 0 -75 27.5t-28 67.5zM224 650
q0 -22 13 -35t37 -13q25 0 39 13t14 35t-14 35.5t-39 13.5q-23 0 -36.5 -13.5t-13.5 -35.5z" />
    <glyph glyph-name="uhungarumlaut.sc" horiz-adv-x="550" 
d="M275 -8q-96 0 -150.5 48.5t-54.5 150.5v316h81v-316q0 -68 30.5 -99t93.5 -31q62 0 93 31t31 99v316h81v-316q0 -103 -55 -151t-150 -48zM236 726h82l-87 -155h-71zM390 726h82l-87 -155h-71z" />
    <glyph glyph-name="uogonek.sc" horiz-adv-x="550" 
d="M480 191q0 -155 -128 -190l-68 -52q-33 -27 -33 -54q0 -15 11.5 -27t32.5 -12q29 0 64 26v-69q-40 -22 -83 -22q-49 0 -77.5 24.5t-28.5 65.5q0 53 54 96l20 16q-82 7 -128 55.5t-46 142.5v316h81v-316q0 -68 30.5 -99t93.5 -31q62 0 93 31t31 99v316h81v-316z" />
    <glyph glyph-name="wacute.sc" horiz-adv-x="808" 
d="M357 507h93l126 -417l121 417h84l-152 -507h-101l-124 399l-125 -399h-99l-153 507h84l121 -417zM445 726h82l-87 -155h-71z" />
    <glyph glyph-name="wcircumflex.sc" horiz-adv-x="808" 
d="M357 507h93l126 -417l121 417h84l-152 -507h-101l-124 399l-125 -399h-99l-153 507h84l121 -417zM364 726h81l102 -156h-74l-69 101l-67 -101h-74z" />
    <glyph glyph-name="wdieresis.sc" horiz-adv-x="808" 
d="M357 507h93l126 -417l121 417h84l-152 -507h-101l-124 399l-125 -399h-99l-153 507h84l121 -417zM314 589q-55 0 -55 53q0 54 55 54q23 0 38.5 -13.5t15.5 -40.5t-15.5 -40t-38.5 -13zM496 589q-55 0 -55 53q0 54 55 54q23 0 38.5 -13.5t15.5 -40.5t-15.5 -40t-38.5 -13z
" />
    <glyph glyph-name="wgrave.sc" horiz-adv-x="808" 
d="M357 507h93l126 -417l121 417h84l-152 -507h-101l-124 399l-125 -399h-99l-153 507h84l121 -417zM281 726h82l76 -155h-71z" />
    <glyph glyph-name="yacute.sc" horiz-adv-x="488" 
d="M284 0h-81v200l-186 307h89l138 -235l137 235h91l-188 -307v-200zM284 726h82l-87 -155h-71z" />
    <glyph glyph-name="ycircumflex.sc" horiz-adv-x="488" 
d="M284 0h-81v200l-186 307h89l138 -235l137 235h91l-188 -307v-200zM204 726h81l102 -156h-74l-69 101l-67 -101h-74z" />
    <glyph glyph-name="ydieresis.sc" horiz-adv-x="488" 
d="M284 0h-81v200l-186 307h89l138 -235l137 235h91l-188 -307v-200zM154 589q-55 0 -55 53q0 54 55 54q23 0 38.5 -13.5t15.5 -40.5t-15.5 -40t-38.5 -13zM336 589q-55 0 -55 53q0 54 55 54q23 0 38.5 -13.5t15.5 -40.5t-15.5 -40t-38.5 -13z" />
    <glyph glyph-name="ygrave.sc" horiz-adv-x="488" 
d="M284 0h-81v200l-186 307h89l138 -235l137 235h91l-188 -307v-200zM127 726h82l76 -155h-71z" />
    <glyph glyph-name="zacute.sc" horiz-adv-x="442" 
d="M393 507v-59l-259 -382h266v-66h-362v57l260 384h-246v66h341zM258 726h82l-87 -155h-71z" />
    <glyph glyph-name="zcaron.sc" horiz-adv-x="442" 
d="M393 507v-59l-259 -382h266v-66h-362v57l260 384h-246v66h341zM260 570h-81l-101 156h74l68 -101l68 101h74z" />
    <glyph glyph-name="zdotaccent.sc" horiz-adv-x="442" 
d="M393 507v-59l-259 -382h266v-66h-362v57l260 384h-246v66h341zM220 589q-55 0 -55 53q0 54 55 54q23 0 38.5 -13.5t15.5 -40.5t-15.5 -40t-38.5 -13z" />
    <glyph glyph-name="ij.sc" horiz-adv-x="640" 
d="M75 0v507h81v-507h-81zM250 72l59 37q28 -49 86 -49q97 0 97 115v332h77v-336q0 -89 -46 -134t-128 -45q-102 0 -145 80z" />
    <glyph glyph-name="germandbls.sc" horiz-adv-x="915" 
d="M862 440l-58 -43q-35 50 -114 50q-46 0 -71 -22t-25 -56q0 -28 17 -44t54 -26l72 -20q132 -38 132 -136q0 -69 -51.5 -110t-138.5 -41q-141 0 -190 94l58 43q17 -33 46 -51t86 -18q52 0 79 21t27 57q0 50 -76 71l-72 20q-127 37 -127 135q0 64 46 107.5t134 43.5
q122 0 172 -75zM410 440l-58 -43q-35 50 -114 50q-46 0 -71 -22t-25 -56q0 -28 17 -44t54 -26l72 -20q132 -38 132 -136q0 -69 -51.5 -110t-138.5 -41q-141 0 -190 94l58 43q17 -33 46 -51t86 -18q52 0 79 21t27 57q0 50 -76 71l-72 20q-127 37 -127 135q0 64 46 107.5
t134 43.5q122 0 172 -75z" />
    <glyph glyph-name="fi.sc" horiz-adv-x="689" 
d="M76 0v507h328v-66h-247v-164h211v-66h-211v-211h-81zM533 0v507h81v-507h-81z" />
    <glyph glyph-name="fl.sc" horiz-adv-x="865" 
d="M76 0v507h328v-66h-247v-164h211v-66h-211v-211h-81zM613 66h229v-66h-310v507h81v-441z" />
    <glyph glyph-name="eng.sc" horiz-adv-x="575" 
d="M419 129v378h81v-518q0 -117 -98 -161l-49 55q36 15 50 40t16 74l-263 385v-382h-82q0 84 0.5 253t0.5 254h86z" />
    <glyph glyph-name="grave.sc" horiz-adv-x="600" 
d="M221 726h82l76 -155h-71z" />
    <glyph glyph-name="acute.sc" horiz-adv-x="600" 
d="M297 726h82l-87 -155h-71z" />
    <glyph glyph-name="circumflex.sc" horiz-adv-x="600" 
d="M259 726h81l102 -156h-74l-69 101l-67 -101h-74z" />
    <glyph glyph-name="caron.sc" horiz-adv-x="600" 
d="M340 570h-81l-101 156h74l68 -101l68 101h74z" />
    <glyph glyph-name="caronalt.sc" horiz-adv-x="600" 
d="M356 507l-52 -156h-60l25 156h87z" />
    <glyph glyph-name="tilde.sc" horiz-adv-x="600" 
d="M439 665l-6 -63q-33 26 -64 26q-22 0 -67 -19.5t-75 -19.5q-42 0 -67 25l6 61q24 -24 61 -24q24 0 66.5 19t75.5 19q36 0 70 -24z" />
    <glyph glyph-name="dieresis.sc" horiz-adv-x="600" 
d="M209 589q-55 0 -55 53q0 54 55 54q23 0 38.5 -13.5t15.5 -40.5t-15.5 -40t-38.5 -13zM391 589q-55 0 -55 53q0 54 55 54q23 0 38.5 -13.5t15.5 -40.5t-15.5 -40t-38.5 -13z" />
    <glyph glyph-name="macron.sc" horiz-adv-x="600" 
d="M160 666h279v-66h-279v66z" />
    <glyph glyph-name="breve.sc" horiz-adv-x="600" 
d="M379 703h58q0 -61 -37.5 -99.5t-101.5 -38.5q-62 0 -99 38.5t-37 99.5h56q2 -34 23.5 -55.5t56.5 -21.5q36 0 57.5 21.5t23.5 55.5z" />
    <glyph glyph-name="ring.sc" horiz-adv-x="600" 
d="M195 650q0 41 28 68t75 27q49 0 77.5 -27t28.5 -68q0 -40 -28.5 -67.5t-77.5 -27.5q-47 0 -75 27.5t-28 67.5zM248 650q0 -22 13 -35t37 -13q25 0 39 13t14 35t-14 35.5t-39 13.5q-23 0 -36.5 -13.5t-13.5 -35.5z" />
    <glyph glyph-name="hungarumlaut.sc" horiz-adv-x="600" 
d="M220 726h82l-87 -155h-71zM374 726h82l-87 -155h-71z" />
    <glyph glyph-name="dotaccent.sc" horiz-adv-x="600" 
d="M300 589q-55 0 -55 53q0 54 55 54q23 0 38.5 -13.5t15.5 -40.5t-15.5 -40t-38.5 -13z" />
    <glyph glyph-name="exclamdown.sc" horiz-adv-x="223" 
d="M81 344h63l13 -344h-91zM111 512q24 0 39.5 -14t15.5 -36q0 -21 -15.5 -35.5t-39.5 -14.5q-23 0 -38.5 14.5t-15.5 35.5q0 22 15.5 36t38.5 14z" />
    <glyph glyph-name="questiondown.sc" horiz-adv-x="383" 
d="M202 512q23 0 38.5 -14t15.5 -36q0 -21 -15.5 -35.5t-38.5 -14.5t-38.5 14.5t-15.5 35.5q0 22 15.5 36t38.5 14zM199 -8q-75 0 -118 37.5t-43 94.5q0 28 13 52.5t31 42.5l36.5 36t31.5 40.5t13 48.5h77q0 -39 -19.5 -72t-43 -52.5t-43 -44t-19.5 -48.5q0 -28 21 -47.5
t58 -19.5q36 0 57 17t21 43l74 -8q0 -52 -37.5 -86t-109.5 -34z" />
    <glyph glyph-name="Euro.sc" horiz-adv-x="488" 
d="M44 327h45q28 188 209 188q72 0 142 -31l-26 -66q-58 27 -117 27q-107 0 -127 -118h206l-20 -50h-191q-1 -7 -1 -22q0 -21 1 -30h171l-19 -50h-144q24 -114 129 -114q63 0 119 33l20 -68q-66 -34 -143 -34q-178 0 -208 183h-46v50h40q-1 10 -1 30q0 15 1 22h-40v50z" />
    <glyph glyph-name="cent.sc" horiz-adv-x="408" 
d="M49 170q0 80 41.5 130t124.5 50q16 0 24 -1l15 56l43 -9l-15 -57q49 -18 75 -62l-51 -36q-15 24 -40 35l-58 -221h12q58 0 87 46l50 -37q-40 -72 -142 -72q-4 0 -12 0.5t-11 0.5l-12 -46l-43 9l12 46q-100 36 -100 168zM123 170q0 -75 43 -102l57 218h-3q-97 0 -97 -116z
" />
    <glyph glyph-name="sterling.sc" horiz-adv-x="478" 
d="M42 249h53v84q0 80 42 131t131 51q103 0 169 -73l-49 -50q-49 53 -117 53q-98 0 -98 -113v-83h149v-50h-149v-136h231v-63h-309v199h-53v50z" />
    <glyph glyph-name="florin.sc" horiz-adv-x="319" 
d="M183 278v-333q0 -50 -28 -82.5t-84 -32.5q-29 0 -58 8v65q23 -6 43 -6q54 0 54 62v319h-77v63h77v69q0 50 28 82.5t86 32.5q29 0 55 -7v-65q-25 5 -44 5q-28 0 -40 -15t-12 -46v-56h83v-63h-83z" />
    <glyph glyph-name="yen.sc" horiz-adv-x="500" 
d="M66 226h130l-30 51h-100v50h72l-105 180h88l127 -230l130 230h89l-108 -180h73v-50h-102l-32 -51h134v-51h-146v-175h-78v175h-142v51z" />
    <glyph glyph-name="rupee.sc" horiz-adv-x="464" 
d="M56 507h362v-54h-100q31 -28 37 -73h63v-46h-64q-5 -46 -35.5 -77.5t-81.5 -41.5l142 -215h-94l-134 205h-95v65h84q65 0 94 15t34 49h-212v46h212q-6 32 -29 47.5t-75 15.5h-108v64z" />
    <glyph glyph-name="perthousand.sc" horiz-adv-x="945" 
d="M535 507l-329 -507h-63l327 507h65zM520 41q32 0 45.5 23t13.5 70q0 48 -13.5 70.5t-45.5 22.5t-45.5 -22.5t-13.5 -70.5q0 -93 59 -93zM520 272q120 0 120 -138t-120 -138t-120 138t120 138zM158 280q33 0 46.5 22.5t13.5 70.5q0 47 -13.5 70t-46.5 23q-59 0 -59 -93
q0 -48 13.5 -70.5t45.5 -22.5zM158 511q120 0 120 -138t-120 -138q-119 0 -119 138t119 138zM787 41q60 0 60 93q0 48 -14 70.5t-46 22.5t-45.5 -22.5t-13.5 -70.5q0 -93 59 -93zM787 272q120 0 120 -138t-120 -138t-120 138t120 138z" />
    <glyph glyph-name="zero.tf" 
d="M280 63q79 0 115 69.5t36 205.5t-36 205.5t-115 69.5q-152 0 -152 -275t152 -275zM280 686q122 0 180 -91t58 -257t-58 -257t-180 -91q-238 0 -238 348q0 166 58 257t180 91z" />
    <glyph glyph-name="one.tf" 
d="M85 0v73h178v519l-170 -70l-23 68l202 86h77v-603h152v-73h-416z" />
    <glyph glyph-name="two.tf" 
d="M273 686q94 0 149.5 -54.5t55.5 -141.5q0 -66 -33 -120.5t-99 -125.5l-161 -172h307v-72h-420v63l216 232q53 57 78.5 102t25.5 93q0 55 -31.5 89t-87.5 34q-57 0 -87.5 -35.5t-30.5 -94.5h-85q0 92 53 147.5t150 55.5z" />
    <glyph glyph-name="three.tf" 
d="M364 348q55 -11 95 -55.5t40 -112.5q0 -85 -61.5 -138t-163.5 -53q-108 0 -164 50t-56 127h85q0 -46 36 -74.5t99 -28.5q65 0 102 32.5t37 87.5q0 59 -42.5 93.5t-114.5 34.5h-61v72h61q66 0 106 30t40 86q0 51 -34 82.5t-94 31.5t-93 -29.5t-33 -74.5h-85q0 75 53.5 126
t157.5 51q98 0 156.5 -52t58.5 -132q0 -61 -36 -101.5t-89 -52.5z" />
    <glyph glyph-name="four.tf" 
d="M529 219v-72h-96v-147h-84v147h-324v64l320 465h88v-457h96zM115 219h234v339z" />
    <glyph glyph-name="five.tf" 
d="M498 217q0 -99 -59 -163.5t-166 -64.5q-109 0 -163 54t-54 137h85q0 -52 33.5 -84.5t98.5 -32.5q68 0 103 42.5t35 111.5q0 65 -35 102t-99 37t-121 -41l-69 8l42 353h346v-72h-277l-26 -209q62 35 120 35q92 0 149 -55t57 -158z" />
    <glyph glyph-name="six.tf" 
d="M141 265q0 -86 36.5 -144t108.5 -58q68 0 104.5 41t36.5 110q0 67 -36 105t-105 38q-47 0 -86.5 -27t-58.5 -65zM414 509q0 48 -32.5 76t-89.5 28q-76 0 -115 -70.5t-39 -192.5q22 30 67 54.5t99 24.5q98 0 154 -58.5t56 -155.5t-59 -161.5t-169 -64.5
q-118 0 -176.5 88.5t-58.5 239.5q0 172 60.5 270.5t180.5 98.5q100 0 153 -50t53 -127h-84z" />
    <glyph glyph-name="seven.tf" 
d="M150 0l247 604h-322v72h416v-63l-249 -613h-92z" />
    <glyph glyph-name="eight.tf" 
d="M281 -11q-107 0 -170.5 51t-63.5 142q0 68 38.5 111t93.5 56q-53 15 -86 53t-33 98q0 86 59.5 136t161.5 50q101 0 160 -50.5t59 -135.5q0 -60 -33 -98t-86 -53q56 -13 94.5 -55.5t38.5 -111.5q0 -91 -63.5 -142t-169.5 -51zM280 613q-61 0 -97 -30.5t-36 -85.5
q0 -53 37 -83t96 -30q58 0 95.5 30t37.5 83q0 55 -35.5 85.5t-97.5 30.5zM280 63q68 0 107.5 33t39.5 93q0 58 -41.5 91t-105.5 33t-105.5 -33t-41.5 -91q0 -60 40 -93t107 -33z" />
    <glyph glyph-name="nine.tf" 
d="M419 410q0 87 -36.5 145t-108.5 58q-68 0 -104.5 -41t-36.5 -110q0 -67 36.5 -105t104.5 -38q47 0 86 26.5t59 64.5zM62 167h85q0 -48 32 -76t88 -28q76 0 115.5 71t39.5 193q-23 -29 -68 -54.5t-98 -25.5q-98 0 -154 58.5t-56 155.5t59.5 161.5t168.5 64.5
q118 0 176.5 -88.5t58.5 -239.5q0 -172 -61 -270.5t-181 -98.5q-100 0 -152.5 50t-52.5 127z" />
    <glyph glyph-name="zero.tosf" 
d="M280 65q153 0 153 223q0 222 -153 222t-153 -222q0 -223 153 -223zM280 586q120 0 179.5 -79t59.5 -219q0 -141 -60 -219.5t-179 -78.5q-120 0 -179.5 78.5t-59.5 219.5q0 140 60 219t179 79z" />
    <glyph glyph-name="one.tosf" 
d="M101 0v74h168v415l-164 -60l-24 66l197 80h74v-501h143v-74h-394z" />
    <glyph glyph-name="two.tosf" 
d="M481 0h-399v58l223 192q48 41 69 73.5t21 72.5q0 49 -30.5 83t-89.5 34q-62 0 -91 -34.5t-29 -93.5h-81q0 89 53.5 145t147.5 56q101 0 153 -55t52 -130q0 -60 -30.5 -105.5t-87.5 -91.5l-158 -136h277v-68z" />
    <glyph glyph-name="three.tosf" 
d="M364 248q55 -11 95 -55.5t40 -112.5q0 -85 -61.5 -138t-163.5 -53q-108 0 -164 50t-56 127h85q0 -46 36 -74.5t99 -28.5q65 0 102 32.5t37 87.5q0 59 -42.5 93.5t-114.5 34.5h-61v72h61q66 0 106 30t40 86q0 51 -34 82.5t-94 31.5t-93 -29.5t-33 -74.5h-85q0 75 53.5 126
t157.5 51q98 0 156.5 -52t58.5 -132q0 -61 -36 -101.5t-89 -52.5z" />
    <glyph glyph-name="four.tosf" 
d="M527 119v-72h-96v-147h-84v147h-324v64l320 465h88v-457h96zM113 119h234v339z" />
    <glyph glyph-name="five.tosf" 
d="M496 116q0 -99 -59 -163.5t-166 -64.5q-109 0 -163 54t-54 137h85q0 -52 33.5 -84.5t98.5 -32.5q68 0 103 42.5t35 111.5q0 65 -35 102t-99 37t-121 -41l-69 8l42 353h346v-72h-277l-26 -209q62 35 120 35q92 0 149 -55t57 -158z" />
    <glyph glyph-name="six.tosf" 
d="M141 265q0 -86 36.5 -144t108.5 -58q68 0 104.5 41t36.5 110q0 67 -36 105t-105 38q-47 0 -86.5 -27t-58.5 -65zM414 509q0 48 -32.5 76t-89.5 28q-76 0 -115 -70.5t-39 -192.5q22 30 67 54.5t99 24.5q98 0 154 -58.5t56 -155.5t-59 -161.5t-169 -64.5
q-118 0 -176.5 88.5t-58.5 239.5q0 172 60.5 270.5t180.5 98.5q100 0 153 -50t53 -127h-84z" />
    <glyph glyph-name="seven.tosf" 
d="M151 -100l247 604h-322v72h416v-63l-249 -613h-92z" />
    <glyph glyph-name="eight.tosf" 
d="M281 -11q-107 0 -170.5 51t-63.5 142q0 68 38.5 111t93.5 56q-53 15 -86 53t-33 98q0 86 59.5 136t161.5 50q101 0 160 -50.5t59 -135.5q0 -60 -33 -98t-86 -53q56 -13 94.5 -55.5t38.5 -111.5q0 -91 -63.5 -142t-169.5 -51zM280 613q-61 0 -97 -30.5t-36 -85.5
q0 -53 37 -83t96 -30q58 0 95.5 30t37.5 83q0 55 -35.5 85.5t-97.5 30.5zM280 63q68 0 107.5 33t39.5 93q0 58 -41.5 91t-105.5 33t-105.5 -33t-41.5 -91q0 -60 40 -93t107 -33z" />
    <glyph glyph-name="nine.tosf" 
d="M418 310q0 87 -36.5 145t-108.5 58q-68 0 -104.5 -41t-36.5 -110q0 -67 36.5 -105t104.5 -38q47 0 86 26.5t59 64.5zM61 67h85q0 -48 32 -76t88 -28q76 0 115.5 71t39.5 193q-23 -29 -68 -54.5t-98 -25.5q-98 0 -154 58.5t-56 155.5t59.5 161.5t168.5 64.5
q118 0 176.5 -88.5t58.5 -239.5q0 -172 -61 -270.5t-181 -98.5q-100 0 -152.5 50t-52.5 127z" />
    <glyph glyph-name="Euro.tf" 
d="M35 432h55q16 120 79.5 187t176.5 67q88 0 174 -43l-29 -72q-71 39 -147 39q-142 0 -167 -178h261l-24 -58h-242q-1 -12 -1 -34q0 -16 2 -44h213l-22 -59h-184q33 -172 169 -172q79 0 153 47l21 -75q-86 -48 -177 -48q-218 0 -255 248h-56v59h50q-1 14 -1 44q0 22 1 34
h-50v58z" />
    <glyph glyph-name="cent.tf" 
d="M94 227q0 107 50.5 173t151.5 66q11 0 31 -2l18 76l49 -11l-19 -76q60 -23 92 -80l-59 -40q-19 34 -50 49l-78 -320q7 -1 21 -1q73 0 108 62l58 -41q-49 -92 -171 -92q-11 0 -33 2l-14 -61l-48 11l15 62q-61 23 -91.5 82t-30.5 141zM176 227q0 -111 58 -149l76 316h-9
q-125 0 -125 -167z" />
    <glyph glyph-name="sterling.tf" 
d="M38 328h67v117q0 107 51 174t159 67q129 0 208 -94l-55 -54q-59 71 -150 71q-130 0 -130 -166v-115h191v-59h-191v-199h295v-70h-378v269h-67v59z" />
    <glyph glyph-name="florin.tf" 
d="M316 385v-457q0 -67 -33.5 -110.5t-102.5 -43.5q-38 0 -65 9v72q24 -7 52 -7q39 0 54.5 23t15.5 69v445h-97v70h97v91q0 68 33.5 111t104.5 43q33 0 62 -9v-72q-32 7 -52 7q-38 0 -53.5 -22.5t-15.5 -68.5v-80h105v-70h-105z" />
    <glyph glyph-name="yen.tf" 
d="M61 296h163l-42 78h-121v59h89l-134 243h94l169 -322l171 322h95l-138 -243h90v-59h-123l-44 -78h167v-58h-178v-238h-84v238h-174v58z" />
    <glyph glyph-name="rupee.tf" 
d="M69 676h433v-58h-126q44 -37 51 -109h75v-59h-75q-8 -63 -52 -105.5t-115 -52.5l184 -292h-99l-176 283h-100v70h107q144 0 162 97h-268v59h269q-10 49 -44.5 73t-106.5 24h-119v70z" />
    <glyph glyph-name="dollar.tf" 
d="M311 -103h-56v93q-155 7 -209 127l64 45q19 -42 51 -67.5t94 -29.5v240l-29 9q-155 48 -155 176q0 75 47 130t137 64v75h56v-74q68 -4 115.5 -31.5t72.5 -66.5l-64 -47q-39 63 -124 70v-236l35 -10q80 -24 121 -66.5t41 -110.5q0 -82 -52.5 -135t-144.5 -61v-94zM318 287
l-7 2v-223q54 7 81.5 37.5t27.5 77.5q0 42 -26 66.5t-76 39.5zM158 494q0 -41 23 -64.5t73 -38.5l1 -1v218q-47 -9 -72 -39.5t-25 -74.5z" />
    <glyph glyph-name="zero.osf" horiz-adv-x="597" 
d="M299 65q157 0 157 223q0 222 -157 222q-158 0 -158 -222q0 -223 158 -223zM299 586q121 0 182 -79t61 -219q0 -141 -61 -219.5t-182 -78.5q-123 0 -183.5 78.5t-60.5 219.5q0 140 61.5 219t182.5 79z" />
    <glyph glyph-name="one.osf" horiz-adv-x="376" 
d="M292 0h-82v495l-166 -68l-22 66l196 82h74v-575z" />
    <glyph glyph-name="two.osf" horiz-adv-x="515" 
d="M459 0h-399v58l223 192q48 41 69 73.5t21 72.5q0 49 -30.5 83t-89.5 34q-62 0 -91 -34.5t-29 -93.5h-81q0 89 53.5 145t147.5 56q101 0 153 -55t52 -130q0 -60 -30.5 -105.5t-87.5 -91.5l-158 -136h277v-68z" />
    <glyph glyph-name="three.osf" horiz-adv-x="547" 
d="M358 248q55 -11 95 -55.5t40 -112.5q0 -85 -61.5 -138t-163.5 -53q-108 0 -164 50t-56 127h85q0 -46 36 -74.5t99 -28.5q65 0 102 32.5t37 87.5q0 59 -42.5 93.5t-114.5 34.5h-61v72h61q66 0 106 30t40 86q0 51 -34 82.5t-94 31.5t-93 -29.5t-33 -74.5h-85q0 75 53.5 126
t157.5 51q98 0 156.5 -52t58.5 -132q0 -61 -36 -101.5t-89 -52.5z" />
    <glyph glyph-name="four.osf" horiz-adv-x="580" 
d="M538 119v-72h-96v-147h-84v147h-324v64l320 465h88v-457h96zM124 119h234v339z" />
    <glyph glyph-name="five.osf" horiz-adv-x="534" 
d="M483 117q0 -99 -59 -163.5t-166 -64.5q-109 0 -163 54t-54 137h85q0 -52 33.5 -84.5t98.5 -32.5q68 0 103 42.5t35 111.5q0 65 -35 102t-99 37t-121 -41l-69 8l42 353h346v-72h-277l-26 -209q62 35 120 35q92 0 149 -55t57 -158z" />
    <glyph glyph-name="six.osf" horiz-adv-x="566" 
d="M144 265q0 -86 36.5 -144t108.5 -58q68 0 104.5 41t36.5 110q0 67 -36 105t-105 38q-47 0 -86.5 -27t-58.5 -65zM417 509q0 48 -32.5 76t-89.5 28q-76 0 -115 -70.5t-39 -192.5q22 30 67 54.5t99 24.5q98 0 154 -58.5t56 -155.5t-59 -161.5t-169 -64.5
q-118 0 -176.5 88.5t-58.5 239.5q0 172 60.5 270.5t180.5 98.5q100 0 153 -50t53 -127h-84z" />
    <glyph glyph-name="seven.osf" horiz-adv-x="489" 
d="M115 -100l247 604h-322v72h416v-63l-249 -613h-92z" />
    <glyph glyph-name="eight.osf" horiz-adv-x="574" 
d="M288 -11q-107 0 -170.5 51t-63.5 142q0 68 38.5 111t93.5 56q-53 15 -86 53t-33 98q0 86 59.5 136t161.5 50q101 0 160 -50.5t59 -135.5q0 -60 -33 -98t-86 -53q56 -13 94.5 -55.5t38.5 -111.5q0 -91 -63.5 -142t-169.5 -51zM287 613q-61 0 -97 -30.5t-36 -85.5
q0 -53 37 -83t96 -30q58 0 95.5 30t37.5 83q0 55 -35.5 85.5t-97.5 30.5zM287 63q68 0 107.5 33t39.5 93q0 58 -41.5 91t-105.5 33t-105.5 -33t-41.5 -91q0 -60 40 -93t107 -33z" />
    <glyph glyph-name="nine.osf" horiz-adv-x="565" 
d="M421 310q0 87 -36.5 145t-108.5 58q-68 0 -104.5 -41t-36.5 -110q0 -67 36.5 -105t104.5 -38q47 0 86 26.5t59 64.5zM64 67h85q0 -48 32 -76t88 -28q76 0 115.5 71t39.5 193q-23 -29 -68 -54.5t-98 -25.5q-98 0 -154 58.5t-56 155.5t59.5 161.5t168.5 64.5
q118 0 176.5 -88.5t58.5 -239.5q0 -172 -61 -270.5t-181 -98.5q-100 0 -152.5 50t-52.5 127z" />
    <glyph glyph-name="zero.denom" horiz-adv-x="350" 
d="M175 46q42 0 60.5 32t18.5 97q0 66 -18.5 98t-60.5 32q-79 0 -79 -130q0 -129 79 -129zM175 356q143 0 143 -181q0 -180 -143 -180t-143 180q0 86 35 133.5t108 47.5z" />
    <glyph glyph-name="one.denom" horiz-adv-x="231" 
d="M183 0h-63v293l-101 -37l-15 48l124 46h55v-350z" />
    <glyph glyph-name="two.denom" horiz-adv-x="306" 
d="M149 356q55 0 88.5 -29.5t33.5 -75.5q0 -34 -20 -63.5t-58 -65.5l-77 -72h160v-50h-244v43l120 115q54 51 54 93q0 24 -15 39t-42 15q-58 0 -58 -61h-62q0 51 30.5 81.5t89.5 30.5z" />
    <glyph glyph-name="three.denom" horiz-adv-x="318" 
d="M214 179q30 -6 51.5 -28.5t21.5 -56.5q0 -45 -36 -72.5t-96 -27.5q-63 0 -95.5 27t-32.5 70h63q0 -21 17.5 -33t47.5 -12q31 0 49.5 13.5t18.5 37.5q0 26 -21 41.5t-59 15.5h-35v50h35q34 0 54 13.5t20 37.5q0 23 -17 36.5t-45 13.5t-44 -12.5t-16 -32.5h-63q0 42 31 69
t92 27q58 0 92 -27.5t34 -70.5q0 -30 -19 -51t-48 -28z" />
    <glyph glyph-name="four.denom" horiz-adv-x="329" 
d="M307 120v-50h-49v-70h-62v70h-180v45l177 235h65v-230h49zM82 120h114v150z" />
    <glyph glyph-name="five.denom" horiz-adv-x="309" 
d="M282 113q0 -52 -34.5 -85.5t-97.5 -33.5q-64 0 -95.5 28t-31.5 73h63q0 -22 16.5 -35.5t47.5 -13.5q33 0 50.5 18.5t17.5 48.5q0 27 -17.5 44t-48.5 17q-34 0 -61 -18l-50 6l24 188h203v-50h-152l-12 -89q30 15 60 15q51 0 84.5 -28.5t33.5 -84.5z" />
    <glyph glyph-name="six.denom" horiz-adv-x="331" 
d="M97 136q0 -40 18 -65t54 -25q33 0 51 17.5t18 48.5q0 29 -18 46.5t-51 17.5q-47 0 -72 -40zM175 305q-40 0 -59.5 -30.5t-19.5 -82.5q32 32 88 32q55 0 86.5 -30.5t31.5 -81.5q0 -50 -34.5 -84t-98.5 -34q-70 0 -104 46t-34 123q0 89 35.5 141t108.5 52q59 0 89 -27
t30 -69h-63q0 45 -56 45z" />
    <glyph glyph-name="seven.denom" horiz-adv-x="275" 
d="M52 0l139 300h-174v50h244v-43l-141 -307h-68z" />
    <glyph glyph-name="eight.denom" horiz-adv-x="336" 
d="M168 -6q-62 0 -99.5 27t-37.5 74q0 67 69 85q-62 20 -62 77q0 46 35 72.5t95 26.5t94.5 -26.5t34.5 -72.5q0 -57 -61 -77q69 -18 69 -85q0 -47 -37.5 -74t-99.5 -27zM168 155q-32 0 -52.5 -15t-20.5 -40t20.5 -39.5t53.5 -14.5q31 0 51 14.5t20 39.5t-19.5 40t-52.5 15z
M168 305q-30 0 -47.5 -13.5t-17.5 -37.5q0 -23 18 -36t47 -13q28 0 46.5 13t18.5 36q0 24 -17.5 37.5t-47.5 13.5z" />
    <glyph glyph-name="nine.denom" horiz-adv-x="331" 
d="M234 215q0 39 -18 64.5t-53 25.5q-34 0 -51.5 -18t-17.5 -48t17.5 -47t51.5 -17q48 0 71 40zM37 90h63q0 -21 15.5 -32.5t40.5 -11.5q79 0 79 113q-33 -33 -88 -33t-86.5 30.5t-31.5 81.5t34.5 84.5t99.5 33.5q69 0 103 -46t34 -123q0 -89 -35.5 -141t-108.5 -52
q-58 0 -88.5 27t-30.5 69z" />
    <glyph glyph-name="zero.num" horiz-adv-x="354" 
d="M176 370q42 0 60.5 32t18.5 97q0 66 -18.5 98t-60.5 32q-79 0 -79 -130q0 -129 79 -129zM176 680q143 0 143 -181q0 -180 -143 -180t-143 180q0 86 35 133.5t108 47.5z" />
    <glyph glyph-name="one.num" horiz-adv-x="236" 
d="M185 324h-63v293l-101 -37l-15 48l124 46h55v-350z" />
    <glyph glyph-name="two.num" horiz-adv-x="311" 
d="M151 680q55 0 88.5 -29.5t33.5 -75.5q0 -34 -20 -63.5t-58 -65.5l-77 -72h160v-50h-244v43l120 115q54 51 54 93q0 24 -15 39t-42 15q-58 0 -58 -61h-62q0 51 30.5 81.5t89.5 30.5z" />
    <glyph glyph-name="three.num" horiz-adv-x="323" 
d="M216 503q30 -6 51.5 -28.5t21.5 -56.5q0 -45 -36 -72.5t-96 -27.5q-63 0 -95.5 27t-32.5 70h63q0 -21 17.5 -33t47.5 -12q31 0 49.5 13.5t18.5 37.5q0 26 -21 41.5t-59 15.5h-35v50h35q34 0 54 13.5t20 37.5q0 23 -17 36.5t-45 13.5t-44 -12.5t-16 -32.5h-63q0 42 31 69
t92 27q58 0 92 -27.5t34 -70.5q0 -30 -19 -51t-48 -28z" />
    <glyph glyph-name="four.num" horiz-adv-x="334" 
d="M309 444v-50h-49v-70h-62v70h-180v45l177 235h65v-230h49zM84 444h114v150z" />
    <glyph glyph-name="five.num" horiz-adv-x="315" 
d="M284 437q0 -52 -34.5 -85.5t-97.5 -33.5q-64 0 -95.5 28t-31.5 73h63q0 -22 16.5 -35.5t47.5 -13.5q33 0 50.5 18.5t17.5 48.5q0 27 -17.5 44t-48.5 17q-34 0 -61 -18l-50 6l24 188h203v-50h-152l-12 -89q30 15 60 15q51 0 84.5 -28.5t33.5 -84.5z" />
    <glyph glyph-name="six.num" horiz-adv-x="336" 
d="M99 460q0 -40 18 -65t54 -25q33 0 51 17.5t18 48.5q0 29 -18 46.5t-51 17.5q-47 0 -72 -40zM177 629q-40 0 -59.5 -30.5t-19.5 -82.5q32 32 88 32q55 0 86.5 -30.5t31.5 -81.5q0 -50 -34.5 -84t-98.5 -34q-70 0 -104 46t-34 123q0 89 35.5 141t108.5 52q59 0 89 -27
t30 -69h-63q0 45 -56 45z" />
    <glyph glyph-name="seven.num" horiz-adv-x="280" 
d="M54 324l139 300h-174v50h244v-43l-141 -307h-68z" />
    <glyph glyph-name="eight.num" horiz-adv-x="341" 
d="M170 318q-62 0 -99.5 27t-37.5 74q0 67 69 85q-62 20 -62 77q0 46 35 72.5t95 26.5t94.5 -26.5t34.5 -72.5q0 -57 -61 -77q69 -18 69 -85q0 -47 -37.5 -74t-99.5 -27zM170 479q-32 0 -52.5 -15t-20.5 -40t20.5 -39.5t53.5 -14.5q31 0 51 14.5t20 39.5t-19.5 40t-52.5 15z
M170 629q-30 0 -47.5 -13.5t-17.5 -37.5q0 -23 18 -36t47 -13q28 0 46.5 13t18.5 36q0 24 -17.5 37.5t-47.5 13.5z" />
    <glyph glyph-name="nine.num" horiz-adv-x="336" 
d="M236 539q0 39 -18 64.5t-53 25.5q-34 0 -51.5 -18t-17.5 -48t17.5 -47t51.5 -17q48 0 71 40zM39 414h63q0 -21 15.5 -32.5t40.5 -11.5q79 0 79 113q-33 -33 -88 -33t-86.5 30.5t-31.5 81.5t34.5 84.5t99.5 33.5q69 0 103 -46t34 -123q0 -89 -35.5 -141t-108.5 -52
q-58 0 -88.5 27t-30.5 69z" />
    <glyph glyph-name="parenleft.case" horiz-adv-x="285" 
d="M252 -99l-61 -23q-69 108 -104 216t-35 246q0 144 35.5 248.5t103.5 214.5l63 -22q-57 -111 -87 -213.5t-30 -227.5q0 -122 28 -223t87 -216z" />
    <glyph glyph-name="parenright.case" horiz-adv-x="285" 
d="M33 -99q59 115 87 216t28 223q0 125 -30 227.5t-87 213.5l63 22q68 -111 103 -215.5t35 -247.5q0 -138 -34.5 -245.5t-103.5 -216.5z" />
    <glyph glyph-name="hyphen.case" horiz-adv-x="392" 
d="M66 365h260v-70h-260v70z" />
    <glyph glyph-name="bracketleft.case" horiz-adv-x="316" 
d="M71 790h204v-69h-121v-768h121v-69h-204v906z" />
    <glyph glyph-name="bracketright.case" horiz-adv-x="316" 
d="M41 790h204v-906h-204v69h121v768h-121v69z" />
    <glyph glyph-name="braceleft.case" horiz-adv-x="313" 
d="M199 653v-209q0 -96 -71 -107q71 -9 71 -108v-207q0 -42 16 -58t54 -16v-64q-81 0 -116.5 29.5t-35.5 107.5v202q0 46 -21 64t-69 18v64q49 0 69.5 18t20.5 64v202q0 75 36 106t116 31v-64q-38 0 -54 -16t-16 -57z" />
    <glyph glyph-name="bar.case" horiz-adv-x="201" 
d="M129 -116h-58v906h58v-906z" />
    <glyph glyph-name="braceright.case" horiz-adv-x="313" 
d="M115 444v209q0 41 -16 57t-54 16v64q80 0 116 -31t36 -106v-202q0 -46 20.5 -64t69.5 -18v-64q-48 0 -69 -18t-21 -64v-202q0 -78 -35.5 -107.5t-116.5 -29.5v64q38 0 54 16t16 58v207q0 99 71 108q-71 11 -71 107z" />
    <glyph glyph-name="guilsinglleft.case" horiz-adv-x="336" 
d="M42 330l179 215l53 -38l-135 -177l135 -178l-53 -38z" />
    <glyph glyph-name="guilsinglright.case" horiz-adv-x="335" 
d="M114 545l179 -215l-179 -216l-53 38l135 178l-135 177z" />
    <glyph glyph-name="guillemotleft.case" horiz-adv-x="527" 
d="M42 330l179 215l53 -38l-135 -177l135 -178l-53 -38zM233 330l179 215l53 -38l-135 -177l135 -178l-53 -38z" />
    <glyph glyph-name="guillemotright.case" horiz-adv-x="527" 
d="M305 545l179 -215l-179 -216l-53 38l135 178l-135 177zM114 545l179 -215l-179 -216l-53 38l135 178l-135 177z" />
    <glyph glyph-name="endash.case" horiz-adv-x="593" 
d="M66 365h460v-70h-460v70z" />
    <glyph glyph-name="emdash.case" horiz-adv-x="733" 
d="M66 365h600v-70h-600v70z" />
    <glyph glyph-name="bullet.case" horiz-adv-x="380" 
d="M190 220q-49 0 -81.5 31t-32.5 78t32.5 78t81.5 31t81 -31t32 -78t-32 -78t-81 -31z" />
    <glyph glyph-name="periodcentered.case" horiz-adv-x="252" 
d="M126 309q-28 0 -46 18t-18 44q0 27 18 44.5t46 17.5q27 0 45 -17.5t18 -44.5q0 -26 -18 -44t-45 -18z" />
    <glyph glyph-name="a.alt" horiz-adv-x="516" 
d="M371 412v44h77v-456h-77v43q-46 -53 -134 -53q-95 0 -143.5 63t-48.5 176q0 112 48.5 174.5t144.5 62.5q86 0 133 -54zM127 229q0 -165 128 -165q79 0 114 55v218q-40 55 -114 55q-128 0 -128 -163z" />
    <glyph glyph-name="agrave.alt" horiz-adv-x="516" 
d="M371 412v44h77v-456h-77v43q-46 -53 -134 -53q-95 0 -143.5 63t-48.5 176q0 112 48.5 174.5t144.5 62.5q86 0 133 -54zM127 229q0 -165 128 -165q79 0 114 55v218q-40 55 -114 55q-128 0 -128 -163zM146 696h86l76 -156h-75z" />
    <glyph glyph-name="aacute.alt" horiz-adv-x="516" 
d="M371 412v44h77v-456h-77v43q-46 -53 -134 -53q-95 0 -143.5 63t-48.5 176q0 112 48.5 174.5t144.5 62.5q86 0 133 -54zM127 229q0 -165 128 -165q79 0 114 55v218q-40 55 -114 55q-128 0 -128 -163zM298 696h86l-87 -156h-75z" />
    <glyph glyph-name="acircumflex.alt" horiz-adv-x="516" 
d="M371 412v44h77v-456h-77v43q-46 -53 -134 -53q-95 0 -143.5 63t-48.5 176q0 112 48.5 174.5t144.5 62.5q86 0 133 -54zM127 229q0 -165 128 -165q79 0 114 55v218q-40 55 -114 55q-128 0 -128 -163zM223 696h81l102 -156h-74l-69 101l-67 -101h-74z" />
    <glyph glyph-name="atilde.alt" horiz-adv-x="516" 
d="M371 412v44h77v-456h-77v43q-46 -53 -134 -53q-95 0 -143.5 63t-48.5 176q0 112 48.5 174.5t144.5 62.5q86 0 133 -54zM127 229q0 -165 128 -165q79 0 114 55v218q-40 55 -114 55q-128 0 -128 -163zM403 635l-6 -63q-33 26 -64 26q-22 0 -67 -19.5t-75 -19.5
q-42 0 -67 25l6 61q24 -24 61 -24q23 0 66 19t76 19q36 0 70 -24z" />
    <glyph glyph-name="adieresis.alt" horiz-adv-x="516" 
d="M371 412v44h77v-456h-77v43q-46 -53 -134 -53q-95 0 -143.5 63t-48.5 176q0 112 48.5 174.5t144.5 62.5q86 0 133 -54zM127 229q0 -165 128 -165q79 0 114 55v218q-40 55 -114 55q-128 0 -128 -163zM172 557q-56 0 -56 54q0 28 15.5 42t40.5 14q24 0 40 -14t16 -42
q0 -27 -16 -40.5t-40 -13.5zM355 557q-55 0 -55 54q0 56 55 56q24 0 40 -14t16 -42q0 -27 -16 -40.5t-40 -13.5z" />
    <glyph glyph-name="amacron.alt" horiz-adv-x="516" 
d="M371 412v44h77v-456h-77v43q-46 -53 -134 -53q-95 0 -143.5 63t-48.5 176q0 112 48.5 174.5t144.5 62.5q86 0 133 -54zM127 229q0 -165 128 -165q79 0 114 55v218q-40 55 -114 55q-128 0 -128 -163zM123 641h281v-66h-281v66z" />
    <glyph glyph-name="abreve.alt" horiz-adv-x="516" 
d="M371 412v44h77v-456h-77v43q-46 -53 -134 -53q-95 0 -143.5 63t-48.5 176q0 112 48.5 174.5t144.5 62.5q86 0 133 -54zM127 229q0 -165 128 -165q79 0 114 55v218q-40 55 -114 55q-128 0 -128 -163zM343 683h58q0 -61 -37.5 -99.5t-101.5 -38.5q-62 0 -99 38.5t-37 99.5
h56q2 -34 23.5 -55.5t56.5 -21.5q36 0 57.5 21.5t23.5 55.5z" />
    <glyph glyph-name="aring.alt" horiz-adv-x="516" 
d="M159 622q0 41 28 68t75 27q49 0 77.5 -27t28.5 -68q0 -40 -28.5 -67.5t-77.5 -27.5q-47 0 -75 27.5t-28 67.5zM212 622q0 -21 13.5 -34.5t36.5 -13.5q25 0 39 13.5t14 34.5q0 22 -14 35.5t-39 13.5q-23 0 -36.5 -13.5t-13.5 -35.5zM371 412v44h77v-456h-77v43
q-46 -53 -134 -53q-95 0 -143.5 63t-48.5 176q0 112 48.5 174.5t144.5 62.5q86 0 133 -54zM127 229q0 -165 128 -165q79 0 114 55v218q-40 55 -114 55q-128 0 -128 -163z" />
    <glyph glyph-name="aringacute.alt" horiz-adv-x="516" 
d="M160 612q0 36 22.5 62t61.5 31l48 73h83l-64 -81q57 -22 57 -85q0 -40 -28.5 -67.5t-76.5 -27.5q-47 0 -75 27.5t-28 67.5zM212 612q0 -21 13.5 -34.5t37.5 -13.5q25 0 38.5 13t13.5 35t-13.5 35.5t-38.5 13.5q-23 0 -37 -13.5t-14 -35.5zM371 412v44h77v-456h-77v43
q-46 -53 -134 -53q-95 0 -143.5 63t-48.5 176q0 112 48.5 174.5t144.5 62.5q86 0 133 -54zM127 229q0 -165 128 -165q79 0 114 55v218q-40 55 -114 55q-128 0 -128 -163z" />
    <glyph glyph-name="g.alt" horiz-adv-x="489" 
d="M458 463v-69h-75q40 -38 40 -97q0 -75 -48.5 -115t-135.5 -40q-44 0 -70 7q-17 -24 -17 -41q0 -36 47 -36h86q164 0 164 -125q0 -71 -59.5 -114t-163.5 -43q-97 0 -146.5 34t-49.5 87q0 37 24 66.5t54 38.5q-15 7 -24 24.5t-9 36.5q0 45 46 87q-74 41 -74 136
q0 78 49 122t142 44q58 0 101 -17zM238 204q108 0 108 95q0 97 -109 97q-112 0 -112 -96q0 -47 26 -71.5t87 -24.5zM154 4q-47 -28 -47 -74q0 -76 120 -76q139 0 139 84q0 66 -84 66h-128z" />
    <glyph glyph-name="gcircumflex.alt" horiz-adv-x="489" 
d="M458 463v-69h-75q40 -38 40 -97q0 -75 -48.5 -115t-135.5 -40q-44 0 -70 7q-17 -24 -17 -41q0 -36 47 -36h86q164 0 164 -125q0 -71 -59.5 -114t-163.5 -43q-97 0 -146.5 34t-49.5 87q0 37 24 66.5t54 38.5q-15 7 -24 24.5t-9 36.5q0 45 46 87q-74 41 -74 136
q0 78 49 122t142 44q58 0 101 -17zM238 204q108 0 108 95q0 97 -109 97q-112 0 -112 -96q0 -47 26 -71.5t87 -24.5zM154 4q-47 -28 -47 -74q0 -76 120 -76q139 0 139 84q0 66 -84 66h-128zM205 696h81l102 -156h-74l-69 101l-67 -101h-74z" />
    <glyph glyph-name="gbreve.alt" horiz-adv-x="489" 
d="M317 683h58q0 -61 -37.5 -99.5t-101.5 -38.5q-62 0 -99 38.5t-37 99.5h56q2 -34 23.5 -55.5t56.5 -21.5q36 0 57.5 21.5t23.5 55.5zM458 463v-69h-75q40 -38 40 -97q0 -75 -48.5 -115t-135.5 -40q-44 0 -70 7q-17 -24 -17 -41q0 -36 47 -36h86q164 0 164 -125
q0 -71 -59.5 -114t-163.5 -43q-97 0 -146.5 34t-49.5 87q0 37 24 66.5t54 38.5q-15 7 -24 24.5t-9 36.5q0 45 46 87q-74 41 -74 136q0 78 49 122t142 44q58 0 101 -17zM238 204q108 0 108 95q0 97 -109 97q-112 0 -112 -96q0 -47 26 -71.5t87 -24.5zM154 4q-47 -28 -47 -74
q0 -76 120 -76q139 0 139 84q0 66 -84 66h-128z" />
    <glyph glyph-name="gdotaccent.alt" horiz-adv-x="489" 
d="M235 557q-56 0 -56 54q0 28 15.5 42t40.5 14q23 0 39.5 -14.5t16.5 -41.5t-16.5 -40.5t-39.5 -13.5zM458 463v-69h-75q40 -38 40 -97q0 -75 -48.5 -115t-135.5 -40q-44 0 -70 7q-17 -24 -17 -41q0 -36 47 -36h86q164 0 164 -125q0 -71 -59.5 -114t-163.5 -43
q-97 0 -146.5 34t-49.5 87q0 37 24 66.5t54 38.5q-15 7 -24 24.5t-9 36.5q0 45 46 87q-74 41 -74 136q0 78 49 122t142 44q58 0 101 -17zM238 204q108 0 108 95q0 97 -109 97q-112 0 -112 -96q0 -47 26 -71.5t87 -24.5zM154 4q-47 -28 -47 -74q0 -76 120 -76q139 0 139 84
q0 66 -84 66h-128z" />
    <glyph glyph-name="brokenbar.sc" horiz-adv-x="202" 
d="M126 290h-50v292h50v-292zM76 188h50v-290h-50v290z" />
    <glyph glyph-name="gcommaaccent.alt" horiz-adv-x="489" 
d="M458 463v-69h-75q40 -38 40 -97q0 -75 -48.5 -115t-135.5 -40q-44 0 -70 7q-17 -24 -17 -41q0 -36 47 -36h86q164 0 164 -125q0 -71 -59.5 -114t-163.5 -43q-97 0 -146.5 34t-49.5 87q0 37 24 66.5t54 38.5q-15 7 -24 24.5t-9 36.5q0 45 46 87q-74 41 -74 136
q0 78 49 122t142 44q58 0 101 -17zM238 204q108 0 108 95q0 97 -109 97q-112 0 -112 -96q0 -47 26 -71.5t87 -24.5zM154 4q-47 -28 -47 -74q0 -76 120 -76q139 0 139 84q0 66 -84 66h-128zM194 554l55 175h63l-26 -175h-92z" />
    <glyph glyph-name="aogonek.alt" horiz-adv-x="516" 
d="M372 412v44h77v-456l-75 -58q-33 -27 -33 -54q0 -16 11.5 -27.5t32.5 -11.5q29 0 64 26v-69q-40 -22 -83 -22q-49 0 -77.5 24.5t-28.5 65.5q0 53 54 96l58 46v27q-46 -53 -134 -53q-95 0 -143.5 63t-48.5 176q0 112 48.5 174.5t144.5 62.5q86 0 133 -54zM128 229
q0 -165 128 -165q79 0 114 55v218q-40 55 -114 55q-128 0 -128 -163z" />
    </font>
</defs>
</svg>
