<?xml version="1.0" standalone="no"?>
<!DOCTYPE svg PUBLIC "-//W3C//DTD SVG 1.1//EN" "http://www.w3.org/Graphics/SVG/1.1/DTD/svg11.dtd" >
<svg>
<metadata>
Created by FontForge 20090622 at Thu Jan 10 18:59:46 2019
 By deploy user
Copyright (c) 2017 by studio kmzero. All rights reserved.
</metadata>
<defs>
<font id="Kabrio" horiz-adv-x="2531" >
  <font-face 
    font-family="Kabrio"
    font-weight="400"
    font-stretch="normal"
    units-per-em="2048"
    panose-1="2 0 5 5 4 0 0 2 0 4"
    ascent="1500"
    descent="-548"
    x-height="1013"
    cap-height="1394"
    bbox="-212 -621 2479 1919"
    underline-thickness="102"
    underline-position="-103"
    unicode-range="U+000D-U+F739"
  />
<missing-glyph horiz-adv-x="680" 
 />
    <glyph glyph-name=".notdef" horiz-adv-x="680" 
 />
    <glyph glyph-name="NULL" horiz-adv-x="0" 
 />
    <glyph glyph-name="NULL" horiz-adv-x="0" 
 />
    <glyph glyph-name="nonmarkingreturn" unicode="&#xd;" horiz-adv-x="520" 
 />
    <glyph glyph-name="space" unicode=" " horiz-adv-x="520" 
 />
    <glyph glyph-name="numbersign" unicode="#" horiz-adv-x="1566" 
d="M166 1056h278l50 338h200l-50 -338h362l50 338h201l-50 -338h280l-26 -187h-281l-49 -333h280l-26 -186h-282l-51 -350h-200l51 350h-362l-51 -350h-200l51 350h-277l26 186h278l49 333h-277zM568 536h362l49 333h-362z" />
    <glyph glyph-name="percent" unicode="%" horiz-adv-x="1763" 
d="M509 0l511 1394h215l-511 -1394h-215zM100 1003q0 109 25 186.5t68.5 126.5t101 72t123.5 23t124 -23t101.5 -72t69 -126.5t25.5 -186.5q0 -110 -25.5 -187t-69 -125.5t-101.5 -71t-124 -22.5t-123.5 22.5t-101 71t-68.5 125.5t-25 187zM265 1004q0 -72 9 -122t28 -80.5
t48 -44t68 -13.5q40 0 69.5 13.5t48.5 44t28 80.5t9 122t-9 121t-28 80t-48.5 44.5t-69.5 13.5t-69 -13.5t-47.5 -44.5t-27.5 -80t-9 -121zM1026 383q0 109 25 186.5t68.5 126.5t101.5 72t124 23t124 -23t101.5 -72t68.5 -126.5t25 -186.5q0 -110 -25 -187t-68.5 -126
t-101.5 -71.5t-124 -22.5t-124 22.5t-101.5 71.5t-68.5 126t-25 187zM1191 383q0 -72 9 -121.5t28 -80t48 -44t69 -13.5t69 13.5t48 44t28.5 80t9.5 121.5t-9.5 121.5t-28.5 80.5t-48 44.5t-69 13.5t-69 -13.5t-48 -44.5t-28 -80.5t-9 -121.5z" />
    <glyph glyph-name="ampersand" unicode="&#x26;" horiz-adv-x="1451" 
d="M861 1186q-37 18 -86 29.5t-125 11.5q-59 0 -108.5 -11.5t-85.5 -35.5t-56.5 -60t-20.5 -84q0 -127 63.5 -181t196.5 -54l215 -1h446v-161h-234v-322q0 -36 5.5 -65.5t18.5 -50.5t34 -32.5t53 -11.5q51 0 85.5 12t66.5 25l54 -145q-28 -15 -56 -27.5t-59 -21t-66 -13.5
t-77 -5q-75 0 -132.5 28t-92.5 88q-66 -54 -153 -85.5t-184 -29.5q-48 1 -99.5 10.5t-100 29t-92 50.5t-76.5 76.5t-52 105.5t-19 138q0 70 17.5 125.5t49 97.5t74 71.5t92.5 46.5q-108 57 -151.5 140.5t-43.5 192.5q0 80 30 144t87.5 108.5t142 68.5t193.5 24q48 0 88.5 -4
t77.5 -12.5t72.5 -22t74.5 -32.5zM854 629h-220q-89 0 -145.5 -20.5t-89.5 -53t-45.5 -72.5t-12.5 -78q0 -70 22.5 -116t61.5 -73.5t91 -38.5t111 -11q31 0 62.5 7.5t61 21t56 33.5t47.5 44v25v332z" />
    <glyph glyph-name="quotesingle" unicode="'" horiz-adv-x="482" 
d="M154 1417h205l-67 -456h-138v456z" />
    <glyph glyph-name="parenleft" unicode="(" horiz-adv-x="609" 
d="M125 602q0 142 25 275.5t61.5 250.5t79 213.5t77.5 164.5l198 -34q-33 -77 -71.5 -176t-71.5 -212.5t-55 -238.5t-22 -254q0 -110 19 -225.5t50.5 -227.5t71 -215t80.5 -187l-198 -34q-44 76 -87.5 177.5t-78 218.5t-56.5 245t-22 259z" />
    <glyph glyph-name="parenright" unicode=")" horiz-adv-x="630" 
d="M495 602q0 -131 -22 -259t-56.5 -245t-78.5 -218.5t-87 -177.5l-198 34q41 84 80.5 187t71 215t50.5 227.5t19 225.5q0 129 -22 254t-55 238.5t-71.5 212.5t-71.5 176l198 34q35 -68 77.5 -164.5t79 -213.5t61.5 -250.5t25 -275.5z" />
    <glyph glyph-name="asterisk" unicode="*" horiz-adv-x="928" 
d="M551 1235l243 64l49 -177l-234 -63l186 -182l-136 -130l-204 200l-203 -200l-136 130l188 183l-234 62l49 178l242 -64v241h190v-242z" />
    <glyph glyph-name="plus" unicode="+" horiz-adv-x="961" 
d="M398 472h-272v185h272v267h191v-267h273v-185h-273v-269h-191v269z" />
    <glyph glyph-name="comma" unicode="," horiz-adv-x="520" 
d="M258 211q131 0 131 -109v-5q0 -63 -12 -118t-32.5 -103t-47.5 -88.5t-57 -74.5l-99 46q33 65 56.5 127.5t24.5 110.5q-51 7 -73 34t-22 74q0 54 33.5 80t97.5 26z" />
    <glyph glyph-name="hyphen" unicode="-" horiz-adv-x="877" 
d="M107 469v184h670v-184h-670z" />
    <glyph glyph-name="period" unicode="." horiz-adv-x="535" 
d="M265 186q131 0 131 -109q0 -48 -30 -78t-98 -30q-72 0 -103 28t-31 82q0 107 131 107z" />
    <glyph glyph-name="slash" unicode="/" horiz-adv-x="904" 
d="M71 -78l584 1589l198 -65l-584 -1589z" />
    <glyph glyph-name="zero" unicode="0" 
d="M2479 1091v-585h-2405v585h912q0 31 4.5 59.5t18.5 54.5q12 27 27 51t37 43q38 40 92 61q26 13 54 18t57 5q33 0 61.5 -6t53.5 -18q29 -13 52.5 -29t42.5 -35q36 -37 62 -94q19 -54 19 -110h912zM1030 1193q-21 -47 -21 -102q0 -56 21 -103q11 -24 25 -45.5t31 -41.5
q18 -18 39.5 -32.5t45.5 -24.5q48 -23 105 -23q30 0 55.5 5t48.5 15q25 11 45.5 25t39.5 33q19 18 33.5 39.5t25.5 44.5q23 53 23 108q0 24 -4.5 47.5t-13.5 44.5q-13 40 -42 75q-14 17 -30 30.5t-33 25.5l-38.5 19.5t-39.5 15.5q-15 5 -32.5 7.5t-37.5 2.5q-29 0 -55.5 -6
t-51.5 -18q-48 -18 -84 -57q-17 -18 -30.5 -40t-24.5 -45zM1141 935l315 319q30 -39 46 -80t16 -83q0 -22 -3.5 -43.5t-11.5 -41.5q-8 -18 -18 -35.5t-23 -35.5h-321zM1094 928q-27 35 -44 75q-8 19 -11 42t-3 46q0 22 3 42t11 40q5 20 15.5 37t23.5 34h321zM1134 207
q3 -5 5 -11t6 -14q2 -7 2 -14v-31q0 -7 -2 -13q-4 -7 -6 -14t-5 -13l-8.5 -11t-9.5 -11q-7 -5 -11.5 -9.5t-11.5 -7.5q-5 -6 -12 -8t-13 -5q-9 -1 -16.5 -2t-14.5 -1q-11 0 -21.5 2.5t-21.5 5.5q-12 5 -20 11t-16 14q-15 16 -23 35q-4 11 -6 21.5t-2 22.5q0 7 0.5 14t2.5 14
q4 16 12 25q4 8 8 13t8 11q6 5 11.5 9l12.5 9l11.5 5.5t15.5 5.5q5 1 12 2t16 1q7 0 14.5 -1t16.5 -2q6 -3 13 -5.5t12 -5.5q7 -5 11.5 -9t11.5 -9l9.5 -11t8.5 -13zM2195 207q3 -5 6 -11t5 -14q3 -7 3 -14v-31q0 -7 -3 -13q-2 -7 -5 -14t-6 -13q-6 -11 -16 -22l-13 -9.5
t-11 -7.5q-7 -6 -13.5 -8t-14.5 -5q-6 -1 -13 -2t-16 -1q-21 0 -43 8q-9 5 -17.5 11t-16.5 14q-7 7 -13.5 15.5t-9.5 19.5q-5 11 -7 21.5t-2 22.5q0 7 1 14t1 14q3 8 6.5 14l6.5 11q3 8 7 13t10 11q5 5 10.5 9l12.5 9q5 3 12 5.5t13 5.5q9 1 16 2t13 1q9 0 16 -1t13 -2
l14.5 -5.5t13.5 -5.5q5 -5 11 -9l13 -9q3 -6 8.5 -11t7.5 -13zM2433 260q1 0 2 1t6 1h38v-218h-38v159q-2 -1 -2.5 -3.5t-2.5 -6.5q-1 -3 -1 -5.5t-1 -5.5l-14.5 -34.5t-15.5 -33.5q-5 -17 -12 -34t-14 -36h-38l-55 138q-3 4 -3 11q-1 3 -3 4l-1 1v-154h-41v218h38
q6 0 7.5 -1t2.5 -1q3 -2 4 -2t3 -1l7 -5q1 -2 3 -4t2 -4q5 -16 12 -32l14 -33q6 -17 12.5 -33.5t13.5 -31.5v-11q2 0 3 -4q0 4 2 4v5q0 2 0.5 3.5t0.5 2.5l8 15l45 115q0 2 1 4l2 4q1 2 4 3t3 2q2 1 4 1t4 2zM1330 262h39v-218h-38l-101 147l-3 1l-1 2q-3 4 -3 7q-4 1 -4 4
q-1 1 -1.5 2t-2.5 2v-165h-40v218h36q4 0 7.5 -1t4.5 -3q4 -1 6 -2t4 -3l22 -32q11 -16 21 -34q14 -14 24.5 -29.5t24.5 -30.5q0 -3 1 -5.5t2 -6.5q0 -1 1 -3t1 -4v154zM672 262l94 -218h-24q-9 0 -17 4q-3 2 -4.5 6.5t-5.5 8.5l-12 28h-100l-11 -28q-1 -4 -2 -5t-3 -1
q-1 -5 -3 -6l-4 -3q-2 0 -3.5 -1.5t-4.5 -1.5q0 -1 -3 -1h-28l95 218h36zM260 262h139v-38h-99v-50h80v-40h-80v-53h99v-37h-139v218zM1966 659q1 7 1 11v22q0 6 -1 10q-3 9 -9 19q-4 6 -14 15q-2 3 -5.5 6t-7.5 8q-5 1 -10 3l-10 4q-5 1 -9 1.5t-11 0.5q-6 0 -11 -0.5
t-9 -1.5q-12 -4 -20 -7q-4 -5 -7.5 -8t-7.5 -6q-4 -4 -7 -7.5t-6 -7.5q-2 -6 -4.5 -10t-3.5 -9q-3 -10 -3 -23q0 -6 1.5 -14t5.5 -14q5 -16 17 -27q5 -5 11 -9t13 -5q13 -6 31 -6h11q4 0 9 1q5 2 10 3.5t10 4.5q4 4 7.5 6t5.5 5q10 7 14 17q6 9 9 18zM838 659q1 7 2 11t1 9
q0 13 -3 23q-1 5 -3.5 9t-4.5 10q-4 6 -13 15q-3 3 -7 6t-10 8q-3 1 -7 3t-10 4q-5 1 -10 1.5t-11 0.5q-5 0 -10 -0.5t-10 -1.5q-6 -2 -10.5 -4t-8.5 -3q-4 -5 -8 -8t-9 -6q-3 -4 -6 -7.5t-5 -7.5q-4 -6 -5 -10t-3 -9q-3 -10 -3 -23q0 -6 2 -14t4 -14q3 -8 7.5 -14.5
l8.5 -12.5q7 -5 13.5 -9t14.5 -5q12 -6 28 -6h11q5 0 10 1q11 4 17 8q13 6 17 11q6 7 13 17q2 5 4.5 9.5t3.5 8.5zM74 262h159v-24q0 -2 -2 -4q0 -5 -1.5 -6.5t-4.5 -3.5l-106 -145h2l1 2h109v-37h-165v13q0 8 1 11q0 2 6 8l1 4l2 4q2 2 3.5 4.5t2.5 5.5l95 130h-103v38z
M1839 203q-8 -9 -15 -24q-2 -5 -4 -11.5t-2 -13.5q0 -8 2 -14.5l4 -12.5q3 -9 6.5 -14.5t8.5 -9.5q4 -5 10 -8.5l13 -7.5q8 -3 14.5 -4.5t13.5 -1.5t11 1.5t9 1.5q5 2 10 5t10 7q4 1 7 2h13q4 0 7 -1q6 -2 9 -6l7 -10q-6 -8 -16 -15q-6 -3 -11 -6t-11 -6q-5 -4 -10.5 -5.5
t-11.5 -3.5t-11 -2.5t-12 -0.5q-13 0 -23.5 2.5t-20.5 5.5q-21 10 -35 25q-16 16 -24 35q-4 11 -6.5 21.5t-2.5 22.5q0 7 1 14t3 14q1 8 3.5 14t7.5 11q5 8 8.5 13t9.5 11q6 5 11.5 9l12.5 9q5 3 11 5.5t15 5.5q6 1 13.5 2t15.5 1h12q5 0 11 -3q6 -2 11.5 -3.5t10.5 -3.5
q6 -3 11 -6t11 -7q10 -9 16 -16l-7 -9q-3 -3 -5 -4.5t-4 -3.5h-14q-3 0 -6.5 0.5t-6.5 2.5q-5 4 -10 6.5t-10 5.5q-5 1 -9 1.5t-11 0.5q-16 0 -28 -6q-7 -3 -13 -6.5t-10 -8.5zM1690 149q3 -3 6 -7t4 -9q1 -4 3 -9t2 -12q0 -14 -7 -28l-8 -12q-4 -6 -9 -9l-11 -9t-13 -6
q-7 -3 -15 -4.5t-14 -1.5q-8 0 -15.5 1.5t-16.5 4.5q-7 2 -12 6.5l-12 10.5q-4 2 -6 6l-4 8q-5 2 -6 12h1q1 1 5 3l1 1q1 1 3 2h4l2 1h12q3 0 4 -1q7 0 10 -3q4 -3 8 -5.5t6 -4.5q2 0 6 -1.5t10 -1.5q2 0 5 0.5t8 2.5q6 2 11 7q6 3 9 7t4.5 7t1.5 7q0 7 -6 11q-4 6 -9 6
q-2 4 -5.5 5t-5.5 3q-7 1 -15 6q-6 1 -10.5 2t-10.5 4q-7 4 -11.5 7t-8.5 7q-5 3 -8.5 7.5t-4.5 8.5q-6 12 -6 24q0 18 6 26q2 7 6 11l9 9q4 3 9.5 5.5t13.5 5.5q5 1 11 2t13 1q4 0 8.5 -1t9.5 -2q6 -2 9 -3.5t8 -3.5q4 -3 7.5 -6t6.5 -7q2 -2 6 -5.5t5 -6.5l-8 -5
q-2 -1 -5 -3t-4 -5h-18q-7 2 -7 3q-3 1 -6 4q-2 0 -3 0.5t-2 0.5q-5 1 -7 1q-8 0 -12 -1q-3 0 -4 -1t-5 -3q-2 -1 -6 -7q-1 -3 -1 -9t1 -6q3 -3 4 -4.5t2 -5.5q4 0 6.5 -0.5t6.5 -1.5q4 -2 9.5 -4.5t8.5 -3.5l8 -2q6 -4 11 -6t11 -6q9 -3 16 -14zM1104 127q2 6 3 12.5
t1 14.5q0 12 -4 25q-3 10 -7.5 14.5t-10.5 9.5q-3 5 -8.5 8.5t-12.5 6.5q-12 6 -28 6t-28 -6l-10.5 -6.5t-10.5 -8.5q-7 -5 -10 -9.5t-6 -14.5q-5 -5 -5.5 -11.5t-0.5 -13.5q0 -8 0.5 -14.5t5.5 -12.5q3 -9 6 -14.5t10 -9.5q5 -5 10.5 -8.5t10.5 -7.5q6 -3 13 -4.5t15 -1.5
q7 0 14 1.5t14 4.5q7 4 12.5 7.5t8.5 8.5q6 4 10.5 9.5t7.5 14.5zM2283 336q-6 -5 -11.5 -9t-12.5 -7q-6 -2 -12 -2.5t-13 -0.5q-9 0 -16.5 0.5t-13.5 2.5q-13 4 -23 16q-4 4 -7.5 9.5l-7.5 11.5l-4 15.5t-2 14.5q0 3 1 7.5t2 8.5t2.5 9.5t4.5 8.5q3 5 6 8.5t5 6.5
q5 2 8.5 5.5t7.5 5.5q5 3 9.5 4.5t7.5 3.5q6 0 9.5 1.5t10.5 1.5q3 0 7.5 -1.5t10.5 -1.5l9 -3.5t7 -4.5q4 -2 8.5 -5.5t6.5 -5.5l4.5 -6.5t4.5 -8.5q6 -7 8 -18q2 -4 3 -8.5t1 -7.5q0 -7 -1 -14.5t-5 -15.5q-1 -6 -5.5 -11.5t-9.5 -9.5zM2164 127q6 12 6 27q0 7 -2 13.5
t-4 11.5q-2 10 -5.5 14.5t-8.5 9.5q-9 10 -24 15q-5 4 -12 5t-16 1q-14 0 -27 -6q-6 -3 -11.5 -6.5t-10.5 -8.5t-9 -9.5t-8 -14.5q-1 -5 -2 -11.5t-1 -13.5q0 -8 1 -14.5l2 -12.5q7 -16 17 -24q5 -5 10.5 -8.5l11.5 -7.5q7 -3 14.5 -4.5t12.5 -1.5q9 0 16 1.5t12 4.5
l13.5 7.5t10.5 8.5q10 9 14 24zM1579 336q-12 9 -17 21q-6 14 -6 30q0 3 0.5 7.5t0.5 8.5q6 11 9 18q5 8 13 15q6 8 12 11q5 3 9.5 4.5t9.5 3.5q4 0 8 1.5t10 1.5q5 0 10.5 -1.5t10.5 -1.5q3 -2 7.5 -3.5t8.5 -4.5q3 -2 6.5 -5.5t6.5 -5.5q4 -3 5.5 -6.5t6.5 -8.5
q3 -7 7 -18q1 -4 2 -8.5t1 -7.5q0 -7 -1.5 -14.5t-5.5 -15.5q-2 -6 -6 -11.5t-9 -9.5q-5 -5 -10.5 -9t-13.5 -7t-26 -3q-8 0 -15 0.5t-12 2.5q-15 4 -22 16zM775 262h139v-38h-100v-57h82v-38h-82v-85h-39v218zM572 224h-60v-180h-42v180h-64v38h166v-38zM1188 864
q-19 9 -37.5 20.5t-34.5 25.5h322q-16 -14 -34.5 -25.5t-38.5 -20.5q-21 -6 -43.5 -11.5t-45.5 -5.5q-24 0 -45 5.5zM1365 1315q20 -8 38.5 -20t33.5 -24h-323q35 30 74 44q39 18 88 18t89 -18zM1389 262h165v-38h-65v-180h-39v180h-61v38zM560 605l-48 66q3 1 6 1.5t6 3.5
q7 3 8 10q3 2 5.5 5.5t3.5 7.5v23q0 4 -2 8q-4 7 -10 13q-4 9 -15 9q-2 3 -7 4.5t-9 1.5h-55v-153h22v63h24l39 -55q2 -4 7 -6q2 -2 4 -2h21zM801 721q5 -3 9 -8.5t6 -9.5q1 -5 2.5 -11t1.5 -13q0 -5 -1.5 -10.5t-2.5 -11.5q-2 -4 -6 -8.5t-9 -7.5q-2 -4 -6.5 -7t-9.5 -7
q-4 -2 -10.5 -3t-12.5 -1q-11 0 -23 4q-4 4 -8.5 7t-9.5 7q-2 3 -6 7.5t-6 8.5q-3 6 -4 11.5t-1 10.5q0 12 5 24q2 4 6 9.5t6 8.5q5 5 9.5 7.5t8.5 5.5q7 2 12.5 3t10.5 1q12 0 23 -4l9.5 -5.5t6.5 -7.5zM1169 605l-67 153h-21l-68 -153h13q8 0 10 2q1 2 2 3t4 3l10 26h79
l9 -26q3 -4 7 -6q1 -2 9 -2h13zM1931 721q3 -3 6.5 -8.5t5.5 -9.5q2 -5 3 -11t1 -13q0 -11 -4 -22q-2 -4 -5.5 -8.5t-6.5 -7.5q-5 -4 -9.5 -7t-8.5 -7q-11 -4 -23 -4q-6 0 -12 1t-10 3q-6 4 -10 7t-8 7q-4 3 -7 7.5t-4 8.5q-3 6 -4.5 11.5t-1.5 10.5q0 12 6 24q1 4 4 9.5
t7 8.5q4 5 8 7.5t10 5.5q9 4 22 4q7 0 11.5 -1t11.5 -3q4 -3 8.5 -5.5t9.5 -7.5zM295 690q7 12 7 19q0 5 -1.5 9.5t-5.5 11.5q0 2 -4 5l-6 7q-2 4 -5.5 7t-8.5 3q-3 3 -8.5 4.5t-10.5 1.5h-54v-153h19v57h35q5 0 10.5 0.5t8.5 3.5q10 4 14 9q3 3 6.5 7t3.5 8zM2126 758h-21
v-119q-2 2 -2.5 5t-2.5 5l-74 103l-5 5q-1 0 -4 0.5t-5 0.5h-16v-153h23v125h1v-4l1 -3l88 -118h17v153zM1579 407q-4 -5 -5.5 -11t-1.5 -9q0 -4 0.5 -8t1.5 -7q1 -7 7 -15q1 -2 3 -4.5t4 -5.5l5 -5q3 -3 8 -3q3 -3 6.5 -4.5t5.5 -2.5q4 -1 8 -1h14q6 0 8 1q3 1 6 2.5t8 4.5
q2 0 5 3l5 5q2 3 5 5.5t4 4.5q2 4 3 7.5t2 7.5q1 3 1.5 7t0.5 8q0 3 -1 9t-4 11q-1 6 -4.5 10t-6.5 9q-3 3 -8 6l-10 6q-4 0 -9.5 0.5t-11.5 0.5q-7 0 -11.5 -0.5t-10.5 -0.5q-4 -3 -9.5 -6t-8.5 -6l-5.5 -9t-3.5 -10zM2225 331h15q4 0 9 1q3 1 5.5 2.5t4.5 4.5q3 0 6.5 3
t7.5 5q2 3 3.5 5.5t4.5 4.5q1 4 2.5 7.5t1.5 7.5q1 3 1 7v8q0 3 -0.5 9t-0.5 11q-2 6 -6 10t-6 9q-6 3 -10.5 6t-8.5 6q-4 0 -10 0.5t-10 0.5q-7 0 -12 -0.5t-11 -0.5q-6 -3 -10 -6t-7 -6q-5 -5 -8 -9t-5 -10q-2 -5 -2 -11v-24q1 -4 2 -7.5t5 -7.5q1 -2 3 -4.5t5 -5.5l5 -5
q3 -3 5 -3q3 -3 6 -4.5t8 -2.5q3 -1 7 -1zM997 758h-19v-118l-2 4q-1 3 -1 5l-74 103q-4 0 -7 5q-2 0 -5 0.5t-5 0.5h-14v-153h21v125l2 -1l1 -2v-4l88 -118h15v153zM2114 381q-7 -2 -12 -4l44 -60h-11q-4 0 -8 2q-1 1 -2 1.5t-2 4.5l-39 52h-25v-60h-17v138h51
q3 0 6.5 -0.5t9.5 -2.5q3 -1 6 -3t4 -4q4 -3 5.5 -6.5t6.5 -7.5q0 -3 0.5 -7.5t0.5 -5.5q0 -5 -0.5 -8.5t-0.5 -6.5q-3 -4 -4.5 -8t-2.5 -5zM1343 381q-2 -2 -12 -4l47 -60h-9q-3 0 -6 0.5t-3 1.5q-2 1 -4 1.5t-3 4.5l-39 52h-25v-60h-15v138h51q3 0 6 -0.5t7 -2.5
q7 -2 15 -7q1 -3 3.5 -6.5t3.5 -7.5q2 -3 2 -8v-14q0 -3 -2 -6q0 -4 -1.5 -8t-3.5 -5l-5 -5q-2 -2 -7 -4zM2460 452q3 2 4 2.5t3 0.5h12v-138h-14v114q0 -1 -2 -3v-2q-4 -8 -7 -17t-7 -14l-5.5 -14.5t-7.5 -13.5q-2 -8 -4 -14t-5 -12l-7 -12.5t-5 -11.5h-15
q-9 12 -14.5 25.5l-11.5 27.5q-5 14 -11.5 28t-11.5 28v2q-3 0 -3 1v-112h-16v138h14q5 0 7 -3q2 -1 2.5 -1.5t0.5 -3.5l48 -108q0 -3 3 -3v-1l1 2q1 2 1 4q0 4 5 8l41 98q2 3 3 3.5t2 1.5zM411 758h-95v-153h95v19h-73v47h60v20h-60v45h73v22zM1723 758h-94v-153h94v19h-73
v47h60v20h-60v45h73v22zM1479 758h-20v-103q0 -3 -3 -8q-1 -7 -10 -12q-1 -2 -4.5 -4.5t-5.5 -5.5l-9 -2h-7q-11 0 -15 2q-6 3 -9.5 5.5t-4.5 4.5q-2 2 -4 5t-7 7q0 5 -1 8.5t-1 10.5v92h-20v-92q0 -7 0.5 -11t1.5 -8q0 -7 5 -14q5 -9 11 -13q2 -2 5.5 -5t7.5 -5
q2 -1 5.5 -2t7.5 -3q5 -1 8.5 -2t9.5 -1q4 0 7 1t10 2q3 2 6 3t7 2q7 5 12 10q5 3 6.5 5.5t3.5 7.5q1 3 3.5 6.5t3.5 7.5v111zM663 631q2 5 3 8.5t1 9.5q0 11 -4.5 19t-11.5 14q-2 1 -3.5 2.5t-5.5 3.5l-6 2q-1 1 -3.5 1t-2.5 3q-5 0 -7 3q-6 1 -8.5 2t-6.5 3q-6 2 -7 3
q-6 4 -6 6v16q1 2 3.5 3.5t2.5 3.5q1 0 3.5 1t3.5 1q4 1 6.5 1.5t5.5 0.5l2 -1q2 -1 4 -1q7 0 8 -5q2 -1 4 -1h4q9 0 13 4l5 2q-1 2 -3 3l-3 4q-3 3 -5.5 5t-6.5 4q-2 0 -4.5 1.5t-7.5 3.5q-4 1 -5.5 1.5t-4.5 0.5q-5 0 -10 -0.5t-8 -1.5q-6 -2 -8.5 -4t-6.5 -3
q-2 -4 -6 -7.5t-5 -6.5q-1 -4 -2.5 -7.5t-1.5 -9.5q0 -5 0.5 -9t3.5 -7q1 -4 4 -7.5t5 -5.5l7 -4.5t9 -3.5q3 -3 6 -4.5t7 -2.5q3 -2 6.5 -2t5.5 -1l6 -2q2 0 4 -2q3 -2 3.5 -3.5t2.5 -5.5q2 -2 2 -5v-10q0 -3 -2 -5q-2 -3 -2.5 -4.5t-3.5 -3.5q-2 -4 -5.5 -5t-4.5 -2
q-3 0 -6 -0.5t-6 -0.5q-4 0 -6.5 0.5t-4.5 0.5q-2 1 -5 2t-3 5l-3 2q-5 4 -12 4h-4q-1 0 -4 -2l-7 -2q0 -5 4 -5q0 -2 3 -4q0 -3 3 -4q0 -1 1 -3h2q8 -8 17 -10.5t19 -2.5q5 0 9.5 0.5t10.5 2.5q4 1 9.5 3t7.5 7q4 2 7.5 5t4.5 9zM1598 631q6 9 6 18q0 11 -4 19t-13 14
q-5 4 -6 6q-2 0 -4.5 0.5t-4.5 1.5q0 1 -3 1t-5 3h-3q-2 1 -4 3q-3 1 -5 2t-5 3q-8 2 -9 3q-4 2 -5 3.5t-2 2.5q0 2 -1 3.5t-1 4.5q0 4 4 8q1 3 5 7q2 0 3 1t6 1q1 2 9 2q1 0 3.5 -1t4.5 -1q2 -2 8 -5q7 -1 9 -1q6 0 9 4l6 2q-1 2 -3.5 3.5t-4.5 3.5q-1 3 -3.5 5t-5.5 4
q-4 0 -6 1.5t-6 3.5q-3 1 -6.5 1.5t-4.5 0.5q-5 0 -9.5 -0.5t-8.5 -1.5l-14 -7q-4 -4 -6 -7.5t-5 -6.5q-2 -4 -3.5 -7.5t-1.5 -9.5q0 -5 1.5 -9t3.5 -7q4 -8 9 -13l6.5 -4.5t6.5 -3.5q5 -3 9 -4.5t7 -2.5q4 -2 5.5 -2t5.5 -1q2 -1 5 -1.5t5 -2.5t4.5 -3.5t2.5 -5.5
q2 -2 2.5 -4.5t0.5 -5.5q0 -2 -0.5 -5t-2.5 -5q-1 -6 -7 -8q-5 -4 -6.5 -5t-3.5 -2q-5 0 -6.5 -0.5t-4.5 -0.5t-6.5 0.5t-5.5 0.5q-5 2 -10 7l-2 2q-5 4 -10 4h-5q-3 0 -4 -2l-6 -2q1 -2 1 -3.5t3 -1.5q0 -1 0.5 -2t0.5 -2l2 -2q1 -1 1 -2q5 -3 7 -3q6 -8 15 -10.5t19 -2.5
q5 0 10 0.5t11 2.5q3 1 7 3t9 7l5 5q3 3 5 9zM1741 317h-16v138h13q2 0 4.5 -0.5t4.5 -3.5l73 -102q2 -1 2 -4l2 -3v113h15v-138h-13l-82 114v3h-3v-117zM78 351q-4 4 -5.5 8t-2.5 8q-3 6 -3.5 10t-0.5 10q0 7 4 16q1 4 2.5 9.5t5.5 8.5l3.5 8.5t7.5 6.5q1 2 5 5.5t7 5.5
q6 3 9.5 4.5t7.5 3.5q4 0 9.5 1.5t11.5 1.5q7 0 13.5 -2t13.5 -5q8 -2 13.5 -5.5t9.5 -9.5q-2 -2 -4 -2v-3h-3q0 -1 -2 -1h-3q-6 0 -7 1q-4 2 -7.5 4.5t-7.5 2.5q-5 1 -8 1h-8q-6 0 -11.5 -0.5t-9.5 -0.5q-6 -3 -11 -6t-9 -6q-4 -5 -6.5 -9t-4.5 -10q-4 -5 -4.5 -11t-0.5 -9
q0 -8 3 -15q1 -4 2.5 -7.5t1.5 -7.5l4 -5q3 -2 5 -5q4 -2 7 -5t7 -3q2 -3 5.5 -4.5t7.5 -2.5q3 -1 6 -1h16q4 0 10 1q3 1 8.5 2.5t8.5 4.5v29h-14l-1 2q-2 1 -3 2t-3 2l-2 1q-1 2 -1 4l-1 1v4h40v-53q-3 -5 -5 -6t-6 -5q-5 -1 -12 -1q-6 -2 -13 -2h-35q-4 1 -7.5 2.5
t-9.5 5.5q-3 1 -7 4t-5 7q-6 3 -7.5 7t-3.5 8zM2374 758h-18q-5 0 -9 -4q-7 -4 -7 -8l-36 -47l-2 -1q0 -1 -2 -1l-1 2l-37 47q-3 5 -6 8q-4 4 -11 4h-17l57 -76l1 -3q0 -1 2 -1l1 -2v-2l1 -1v-68h23v68q1 0 1 3q1 0 2 3v3h1zM240 438v-43h55v-16h-55v-47h68v-15h-85v138h85
v-17h-68zM1171 438v-43h59v-16h-59v-47h68v-15h-83v138h83v-17h-68zM642 455v-85q0 -5 2 -8.5t5 -5.5q1 -6 3.5 -8.5t4.5 -6.5q1 -2 4.5 -4t5.5 -4q5 -2 9 -2h16q3 0 6 2q5 2 8 4t7 4q1 4 3.5 6.5t4.5 8.5q4 5 4 14v85h14v-85q0 -6 -1 -10.5t-3 -10.5q-1 -7 -4.5 -11
t-7.5 -7q-3 -5 -7.5 -8t-9.5 -4q-11 -2 -22 -2t-24 2q-3 1 -7 4t-9 8q-6 6 -11 18q-2 6 -4 10.5t-2 10.5v85h15zM2252 624h-66v134h-23v-153h89v19zM1270 624h-66v134h-21v-153h87v19zM1453 336q2 3 4 9q2 2 2.5 5.5t0.5 5.5q0 8 -1 11q-2 1 -3 3.5t-3 3.5q-3 3 -9 5
q-4 0 -6 1.5t-7 2.5q-3 1 -6.5 3t-4.5 3q-11 1 -15 8q-3 0 -5 3t-4 5v15q0 6 0.5 9.5t1.5 6.5q1 8 9 11l7 4q3 2 8 4q3 0 5.5 1.5t8.5 1.5q2 0 5.5 -1.5t4.5 -1.5q3 0 5 -1.5t5 -2.5t4.5 -2.5t1.5 -3.5q6 -1 7 -3.5t2 -3.5l-3 -2q-3 -2 -9 -2h-6q-4 3 -4 4h-9l-1 1h-3
q-7 0 -9 -1q-7 0 -7 -2q-7 -5 -7 -8q-3 0 -3 -8q0 -5 3 -6q0 -4 4 -7q1 -1 3.5 -2.5t3.5 -1.5q4 -3 6.5 -3.5t7.5 -2.5q1 0 3.5 -0.5t2.5 -1.5q2 0 4 -0.5t5 -4.5h2v-1h2q2 0 3 -1l2 -1q6 -4 8 -7t5 -6q2 -9 2 -18q0 -6 -0.5 -10t-4.5 -7q-1 -7 -10 -13q-2 -3 -6 -4.5
t-7 -2.5q-4 -2 -9 -2h-11q-8 0 -16 1.5t-15 7.5q-1 0 -2.5 2.5t-4.5 4.5q0 2 -1 4l-1 2l3 3q1 1 4 1h2q3 0 5 -1.5t5 -2.5q4 -3 6.5 -4.5t5.5 -2.5q1 -1 4 -1h5q9 0 11 1q7 0 13 4zM1070 317l-61 138h6q6 0 10 -3q1 -1 2 -1.5t3 -3.5l44 -104v-4q1 -3 2 -5v6q1 2 1 3
l13.5 26t11.5 26q4 15 10 27.5l12 24.5q1 3 3 3.5t2 1.5q3 2 4 2.5t4 0.5h8l-15.5 -34.5t-15.5 -33.5l-15 -36l-14 -34h-15zM532 438v-48h60v-13h-60v-60h-16v138h86v-17h-70zM1957 438v-48h57v-13h-57v-60h-16v138h85v-17h-69zM370 317v121h-46v17h106v-17h-46v-121h-14z
M785 455v-123h62v-15h-79v138h17zM271 730q2 -3 3 -6t3 -5q1 -4 1 -10v-5q0 -2 -1 -5q-2 -2 -3 -5t-3 -4q-3 -4 -9 -7q-5 -1 -10 -1h-35v54h35q7 0 10 -2q3 0 5.5 -2t3.5 -2zM878 455v-123h64v-15h-79v138h15zM1325 390q5 0 6 4q3 1 5 2t5 1l2 4q1 2 3 4q0 2 1 5t1 8
q0 1 -1 2.5t-1 5.5q-2 2 -3 3.5t-2 4.5q-3 0 -5 1.5t-5 2.5h-42v-48h36zM2102 394q1 1 3 2t4 1q5 6 5 8q1 5 1 13q0 3 -1 8q0 2 -5 8q-2 0 -4 1.5t-3 2.5h-43v-48h34q5 0 9 4zM519 703q0 -1 -5 -8q-2 -1 -3 -2.5t-4 -2.5q-2 -2 -9 -2h-33v48h33q4 0 9 -2q3 0 4 -1.5t3 -2.5
q3 -5 5 -9q3 -2 3 -10q0 -6 -3 -8zM684 129l-27 68q0 1 -1 3t-1 3q0 4 -1 6v-6q0 -1 -1.5 -3t-1.5 -3l-28 -68h61zM1524 455v-138h-16v138h16zM1091 728q1 -2 1 -5l29 -64h-60l28 64q0 3 1 4v2zM1756 81q5 0 6 -6q1 -1 1 -5v-4q0 -6 -1 -9q-1 -5 -6 -9q-3 -1 -7 -4
q-1 -1 -3.5 -1.5t-5.5 -0.5q-2 0 -5 0.5t-4 1.5q-2 1 -4 2.5t-4 1.5q-1 2 -2.5 4t-4.5 5q-1 3 -1 9v4q0 4 1 5l4 4q2 2 3 2q5 6 8 6q1 3 4 3.5t5 0.5q3 0 5.5 -0.5t3.5 -3.5q4 0 7 -6z" />
    <glyph glyph-name="one" unicode="1" 
d="M2479 1091v-585h-2405v585h912q0 31 4.5 59.5t18.5 54.5q12 27 27 51t37 43q38 40 92 61q26 13 54 18t57 5q33 0 61.5 -6t53.5 -18q29 -13 52.5 -29t42.5 -35q36 -37 62 -94q19 -54 19 -110h912zM1030 1193q-21 -47 -21 -102q0 -56 21 -103q11 -24 25 -45.5t31 -41.5
q18 -18 39.5 -32.5t45.5 -24.5q48 -23 105 -23q30 0 55.5 5t48.5 15q25 11 45.5 25t39.5 33q19 18 33.5 39.5t25.5 44.5q23 53 23 108q0 24 -4.5 47.5t-13.5 44.5q-13 40 -42 75q-14 17 -30 30.5t-33 25.5l-38.5 19.5t-39.5 15.5q-15 5 -32.5 7.5t-37.5 2.5q-29 0 -55.5 -6
t-51.5 -18q-48 -18 -84 -57q-17 -18 -30.5 -40t-24.5 -45zM1141 935l315 319q30 -39 46 -80t16 -83q0 -22 -3.5 -43.5t-11.5 -41.5q-8 -18 -18 -35.5t-23 -35.5h-321zM1094 928q-27 35 -44 75q-8 19 -11 42t-3 46q0 22 3 42t11 40q5 20 15.5 37t23.5 34h321zM1134 207
q3 -5 5 -11t6 -14q2 -7 2 -14v-31q0 -7 -2 -13q-4 -7 -6 -14t-5 -13l-8.5 -11t-9.5 -11q-7 -5 -11.5 -9.5t-11.5 -7.5q-5 -6 -12 -8t-13 -5q-9 -1 -16.5 -2t-14.5 -1q-11 0 -21.5 2.5t-21.5 5.5q-12 5 -20 11t-16 14q-15 16 -23 35q-4 11 -6 21.5t-2 22.5q0 7 0.5 14t2.5 14
q4 16 12 25q4 8 8 13t8 11q6 5 11.5 9l12.5 9l11.5 5.5t15.5 5.5q5 1 12 2t16 1q7 0 14.5 -1t16.5 -2q6 -3 13 -5.5t12 -5.5q7 -5 11.5 -9t11.5 -9l9.5 -11t8.5 -13zM2195 207q3 -5 6 -11t5 -14q3 -7 3 -14v-31q0 -7 -3 -13q-2 -7 -5 -14t-6 -13q-6 -11 -16 -22l-13 -9.5
t-11 -7.5q-7 -6 -13.5 -8t-14.5 -5q-6 -1 -13 -2t-16 -1q-21 0 -43 8q-9 5 -17.5 11t-16.5 14q-7 7 -13.5 15.5t-9.5 19.5q-5 11 -7 21.5t-2 22.5q0 7 1 14t1 14q3 8 6.5 14l6.5 11q3 8 7 13t10 11q5 5 10.5 9l12.5 9q5 3 12 5.5t13 5.5q9 1 16 2t13 1q9 0 16 -1t13 -2
l14.5 -5.5t13.5 -5.5q5 -5 11 -9l13 -9q3 -6 8.5 -11t7.5 -13zM2433 260q1 0 2 1t6 1h38v-218h-38v159q-2 -1 -2.5 -3.5t-2.5 -6.5q-1 -3 -1 -5.5t-1 -5.5l-14.5 -34.5t-15.5 -33.5q-5 -17 -12 -34t-14 -36h-38l-55 138q-3 4 -3 11q-1 3 -3 4l-1 1v-154h-41v218h38
q6 0 7.5 -1t2.5 -1q3 -2 4 -2t3 -1l7 -5q1 -2 3 -4t2 -4q5 -16 12 -32l14 -33q6 -17 12.5 -33.5t13.5 -31.5v-11q2 0 3 -4q0 4 2 4v5q0 2 0.5 3.5t0.5 2.5l8 15l45 115q0 2 1 4l2 4q1 2 4 3t3 2q2 1 4 1t4 2zM1330 262h39v-218h-38l-101 147l-3 1l-1 2q-3 4 -3 7q-4 1 -4 4
q-1 1 -1.5 2t-2.5 2v-165h-40v218h36q4 0 7.5 -1t4.5 -3q4 -1 6 -2t4 -3l22 -32q11 -16 21 -34q14 -14 24.5 -29.5t24.5 -30.5q0 -3 1 -5.5t2 -6.5q0 -1 1 -3t1 -4v154zM672 262l94 -218h-24q-9 0 -17 4q-3 2 -4.5 6.5t-5.5 8.5l-12 28h-100l-11 -28q-1 -4 -2 -5t-3 -1
q-1 -5 -3 -6l-4 -3q-2 0 -3.5 -1.5t-4.5 -1.5q0 -1 -3 -1h-28l95 218h36zM260 262h139v-38h-99v-50h80v-40h-80v-53h99v-37h-139v218zM1966 659q1 7 1 11v22q0 6 -1 10q-3 9 -9 19q-4 6 -14 15q-2 3 -5.5 6t-7.5 8q-5 1 -10 3l-10 4q-5 1 -9 1.5t-11 0.5q-6 0 -11 -0.5
t-9 -1.5q-12 -4 -20 -7q-4 -5 -7.5 -8t-7.5 -6q-4 -4 -7 -7.5t-6 -7.5q-2 -6 -4.5 -10t-3.5 -9q-3 -10 -3 -23q0 -6 1.5 -14t5.5 -14q5 -16 17 -27q5 -5 11 -9t13 -5q13 -6 31 -6h11q4 0 9 1q5 2 10 3.5t10 4.5q4 4 7.5 6t5.5 5q10 7 14 17q6 9 9 18zM838 659q1 7 2 11t1 9
q0 13 -3 23q-1 5 -3.5 9t-4.5 10q-4 6 -13 15q-3 3 -7 6t-10 8q-3 1 -7 3t-10 4q-5 1 -10 1.5t-11 0.5q-5 0 -10 -0.5t-10 -1.5q-6 -2 -10.5 -4t-8.5 -3q-4 -5 -8 -8t-9 -6q-3 -4 -6 -7.5t-5 -7.5q-4 -6 -5 -10t-3 -9q-3 -10 -3 -23q0 -6 2 -14t4 -14q3 -8 7.5 -14.5
l8.5 -12.5q7 -5 13.5 -9t14.5 -5q12 -6 28 -6h11q5 0 10 1q11 4 17 8q13 6 17 11q6 7 13 17q2 5 4.5 9.5t3.5 8.5zM74 262h159v-24q0 -2 -2 -4q0 -5 -1.5 -6.5t-4.5 -3.5l-106 -145h2l1 2h109v-37h-165v13q0 8 1 11q0 2 6 8l1 4l2 4q2 2 3.5 4.5t2.5 5.5l95 130h-103v38z
M1839 203q-8 -9 -15 -24q-2 -5 -4 -11.5t-2 -13.5q0 -8 2 -14.5l4 -12.5q3 -9 6.5 -14.5t8.5 -9.5q4 -5 10 -8.5l13 -7.5q8 -3 14.5 -4.5t13.5 -1.5t11 1.5t9 1.5q5 2 10 5t10 7q4 1 7 2h13q4 0 7 -1q6 -2 9 -6l7 -10q-6 -8 -16 -15q-6 -3 -11 -6t-11 -6q-5 -4 -10.5 -5.5
t-11.5 -3.5t-11 -2.5t-12 -0.5q-13 0 -23.5 2.5t-20.5 5.5q-21 10 -35 25q-16 16 -24 35q-4 11 -6.5 21.5t-2.5 22.5q0 7 1 14t3 14q1 8 3.5 14t7.5 11q5 8 8.5 13t9.5 11q6 5 11.5 9l12.5 9q5 3 11 5.5t15 5.5q6 1 13.5 2t15.5 1h12q5 0 11 -3q6 -2 11.5 -3.5t10.5 -3.5
q6 -3 11 -6t11 -7q10 -9 16 -16l-7 -9q-3 -3 -5 -4.5t-4 -3.5h-14q-3 0 -6.5 0.5t-6.5 2.5q-5 4 -10 6.5t-10 5.5q-5 1 -9 1.5t-11 0.5q-16 0 -28 -6q-7 -3 -13 -6.5t-10 -8.5zM1690 149q3 -3 6 -7t4 -9q1 -4 3 -9t2 -12q0 -14 -7 -28l-8 -12q-4 -6 -9 -9l-11 -9t-13 -6
q-7 -3 -15 -4.5t-14 -1.5q-8 0 -15.5 1.5t-16.5 4.5q-7 2 -12 6.5l-12 10.5q-4 2 -6 6l-4 8q-5 2 -6 12h1q1 1 5 3l1 1q1 1 3 2h4l2 1h12q3 0 4 -1q7 0 10 -3q4 -3 8 -5.5t6 -4.5q2 0 6 -1.5t10 -1.5q2 0 5 0.5t8 2.5q6 2 11 7q6 3 9 7t4.5 7t1.5 7q0 7 -6 11q-4 6 -9 6
q-2 4 -5.5 5t-5.5 3q-7 1 -15 6q-6 1 -10.5 2t-10.5 4q-7 4 -11.5 7t-8.5 7q-5 3 -8.5 7.5t-4.5 8.5q-6 12 -6 24q0 18 6 26q2 7 6 11l9 9q4 3 9.5 5.5t13.5 5.5q5 1 11 2t13 1q4 0 8.5 -1t9.5 -2q6 -2 9 -3.5t8 -3.5q4 -3 7.5 -6t6.5 -7q2 -2 6 -5.5t5 -6.5l-8 -5
q-2 -1 -5 -3t-4 -5h-18q-7 2 -7 3q-3 1 -6 4q-2 0 -3 0.5t-2 0.5q-5 1 -7 1q-8 0 -12 -1q-3 0 -4 -1t-5 -3q-2 -1 -6 -7q-1 -3 -1 -9t1 -6q3 -3 4 -4.5t2 -5.5q4 0 6.5 -0.5t6.5 -1.5q4 -2 9.5 -4.5t8.5 -3.5l8 -2q6 -4 11 -6t11 -6q9 -3 16 -14zM1104 127q2 6 3 12.5
t1 14.5q0 12 -4 25q-3 10 -7.5 14.5t-10.5 9.5q-3 5 -8.5 8.5t-12.5 6.5q-12 6 -28 6t-28 -6l-10.5 -6.5t-10.5 -8.5q-7 -5 -10 -9.5t-6 -14.5q-5 -5 -5.5 -11.5t-0.5 -13.5q0 -8 0.5 -14.5t5.5 -12.5q3 -9 6 -14.5t10 -9.5q5 -5 10.5 -8.5t10.5 -7.5q6 -3 13 -4.5t15 -1.5
q7 0 14 1.5t14 4.5q7 4 12.5 7.5t8.5 8.5q6 4 10.5 9.5t7.5 14.5zM2283 336q-6 -5 -11.5 -9t-12.5 -7q-6 -2 -12 -2.5t-13 -0.5q-9 0 -16.5 0.5t-13.5 2.5q-13 4 -23 16q-4 4 -7.5 9.5l-7.5 11.5l-4 15.5t-2 14.5q0 3 1 7.5t2 8.5t2.5 9.5t4.5 8.5q3 5 6 8.5t5 6.5
q5 2 8.5 5.5t7.5 5.5q5 3 9.5 4.5t7.5 3.5q6 0 9.5 1.5t10.5 1.5q3 0 7.5 -1.5t10.5 -1.5l9 -3.5t7 -4.5q4 -2 8.5 -5.5t6.5 -5.5l4.5 -6.5t4.5 -8.5q6 -7 8 -18q2 -4 3 -8.5t1 -7.5q0 -7 -1 -14.5t-5 -15.5q-1 -6 -5.5 -11.5t-9.5 -9.5zM2164 127q6 12 6 27q0 7 -2 13.5
t-4 11.5q-2 10 -5.5 14.5t-8.5 9.5q-9 10 -24 15q-5 4 -12 5t-16 1q-14 0 -27 -6q-6 -3 -11.5 -6.5t-10.5 -8.5t-9 -9.5t-8 -14.5q-1 -5 -2 -11.5t-1 -13.5q0 -8 1 -14.5l2 -12.5q7 -16 17 -24q5 -5 10.5 -8.5l11.5 -7.5q7 -3 14.5 -4.5t12.5 -1.5q9 0 16 1.5t12 4.5
l13.5 7.5t10.5 8.5q10 9 14 24zM1579 336q-12 9 -17 21q-6 14 -6 30q0 3 0.5 7.5t0.5 8.5q6 11 9 18q5 8 13 15q6 8 12 11q5 3 9.5 4.5t9.5 3.5q4 0 8 1.5t10 1.5q5 0 10.5 -1.5t10.5 -1.5q3 -2 7.5 -3.5t8.5 -4.5q3 -2 6.5 -5.5t6.5 -5.5q4 -3 5.5 -6.5t6.5 -8.5
q3 -7 7 -18q1 -4 2 -8.5t1 -7.5q0 -7 -1.5 -14.5t-5.5 -15.5q-2 -6 -6 -11.5t-9 -9.5q-5 -5 -10.5 -9t-13.5 -7t-26 -3q-8 0 -15 0.5t-12 2.5q-15 4 -22 16zM775 262h139v-38h-100v-57h82v-38h-82v-85h-39v218zM572 224h-60v-180h-42v180h-64v38h166v-38zM1188 864
q-19 9 -37.5 20.5t-34.5 25.5h322q-16 -14 -34.5 -25.5t-38.5 -20.5q-21 -6 -43.5 -11.5t-45.5 -5.5q-24 0 -45 5.5zM1365 1315q20 -8 38.5 -20t33.5 -24h-323q35 30 74 44q39 18 88 18t89 -18zM1389 262h165v-38h-65v-180h-39v180h-61v38zM560 605l-48 66q3 1 6 1.5t6 3.5
q7 3 8 10q3 2 5.5 5.5t3.5 7.5v23q0 4 -2 8q-4 7 -10 13q-4 9 -15 9q-2 3 -7 4.5t-9 1.5h-55v-153h22v63h24l39 -55q2 -4 7 -6q2 -2 4 -2h21zM801 721q5 -3 9 -8.5t6 -9.5q1 -5 2.5 -11t1.5 -13q0 -5 -1.5 -10.5t-2.5 -11.5q-2 -4 -6 -8.5t-9 -7.5q-2 -4 -6.5 -7t-9.5 -7
q-4 -2 -10.5 -3t-12.5 -1q-11 0 -23 4q-4 4 -8.5 7t-9.5 7q-2 3 -6 7.5t-6 8.5q-3 6 -4 11.5t-1 10.5q0 12 5 24q2 4 6 9.5t6 8.5q5 5 9.5 7.5t8.5 5.5q7 2 12.5 3t10.5 1q12 0 23 -4l9.5 -5.5t6.5 -7.5zM1169 605l-67 153h-21l-68 -153h13q8 0 10 2q1 2 2 3t4 3l10 26h79
l9 -26q3 -4 7 -6q1 -2 9 -2h13zM1931 721q3 -3 6.5 -8.5t5.5 -9.5q2 -5 3 -11t1 -13q0 -11 -4 -22q-2 -4 -5.5 -8.5t-6.5 -7.5q-5 -4 -9.5 -7t-8.5 -7q-11 -4 -23 -4q-6 0 -12 1t-10 3q-6 4 -10 7t-8 7q-4 3 -7 7.5t-4 8.5q-3 6 -4.5 11.5t-1.5 10.5q0 12 6 24q1 4 4 9.5
t7 8.5q4 5 8 7.5t10 5.5q9 4 22 4q7 0 11.5 -1t11.5 -3q4 -3 8.5 -5.5t9.5 -7.5zM295 690q7 12 7 19q0 5 -1.5 9.5t-5.5 11.5q0 2 -4 5l-6 7q-2 4 -5.5 7t-8.5 3q-3 3 -8.5 4.5t-10.5 1.5h-54v-153h19v57h35q5 0 10.5 0.5t8.5 3.5q10 4 14 9q3 3 6.5 7t3.5 8zM2126 758h-21
v-119q-2 2 -2.5 5t-2.5 5l-74 103l-5 5q-1 0 -4 0.5t-5 0.5h-16v-153h23v125h1v-4l1 -3l88 -118h17v153zM1579 407q-4 -5 -5.5 -11t-1.5 -9q0 -4 0.5 -8t1.5 -7q1 -7 7 -15q1 -2 3 -4.5t4 -5.5l5 -5q3 -3 8 -3q3 -3 6.5 -4.5t5.5 -2.5q4 -1 8 -1h14q6 0 8 1q3 1 6 2.5t8 4.5
q2 0 5 3l5 5q2 3 5 5.5t4 4.5q2 4 3 7.5t2 7.5q1 3 1.5 7t0.5 8q0 3 -1 9t-4 11q-1 6 -4.5 10t-6.5 9q-3 3 -8 6l-10 6q-4 0 -9.5 0.5t-11.5 0.5q-7 0 -11.5 -0.5t-10.5 -0.5q-4 -3 -9.5 -6t-8.5 -6l-5.5 -9t-3.5 -10zM2225 331h15q4 0 9 1q3 1 5.5 2.5t4.5 4.5q3 0 6.5 3
t7.5 5q2 3 3.5 5.5t4.5 4.5q1 4 2.5 7.5t1.5 7.5q1 3 1 7v8q0 3 -0.5 9t-0.5 11q-2 6 -6 10t-6 9q-6 3 -10.5 6t-8.5 6q-4 0 -10 0.5t-10 0.5q-7 0 -12 -0.5t-11 -0.5q-6 -3 -10 -6t-7 -6q-5 -5 -8 -9t-5 -10q-2 -5 -2 -11v-24q1 -4 2 -7.5t5 -7.5q1 -2 3 -4.5t5 -5.5l5 -5
q3 -3 5 -3q3 -3 6 -4.5t8 -2.5q3 -1 7 -1zM997 758h-19v-118l-2 4q-1 3 -1 5l-74 103q-4 0 -7 5q-2 0 -5 0.5t-5 0.5h-14v-153h21v125l2 -1l1 -2v-4l88 -118h15v153zM2114 381q-7 -2 -12 -4l44 -60h-11q-4 0 -8 2q-1 1 -2 1.5t-2 4.5l-39 52h-25v-60h-17v138h51
q3 0 6.5 -0.5t9.5 -2.5q3 -1 6 -3t4 -4q4 -3 5.5 -6.5t6.5 -7.5q0 -3 0.5 -7.5t0.5 -5.5q0 -5 -0.5 -8.5t-0.5 -6.5q-3 -4 -4.5 -8t-2.5 -5zM1343 381q-2 -2 -12 -4l47 -60h-9q-3 0 -6 0.5t-3 1.5q-2 1 -4 1.5t-3 4.5l-39 52h-25v-60h-15v138h51q3 0 6 -0.5t7 -2.5
q7 -2 15 -7q1 -3 3.5 -6.5t3.5 -7.5q2 -3 2 -8v-14q0 -3 -2 -6q0 -4 -1.5 -8t-3.5 -5l-5 -5q-2 -2 -7 -4zM2460 452q3 2 4 2.5t3 0.5h12v-138h-14v114q0 -1 -2 -3v-2q-4 -8 -7 -17t-7 -14l-5.5 -14.5t-7.5 -13.5q-2 -8 -4 -14t-5 -12l-7 -12.5t-5 -11.5h-15
q-9 12 -14.5 25.5l-11.5 27.5q-5 14 -11.5 28t-11.5 28v2q-3 0 -3 1v-112h-16v138h14q5 0 7 -3q2 -1 2.5 -1.5t0.5 -3.5l48 -108q0 -3 3 -3v-1l1 2q1 2 1 4q0 4 5 8l41 98q2 3 3 3.5t2 1.5zM411 758h-95v-153h95v19h-73v47h60v20h-60v45h73v22zM1723 758h-94v-153h94v19h-73
v47h60v20h-60v45h73v22zM1479 758h-20v-103q0 -3 -3 -8q-1 -7 -10 -12q-1 -2 -4.5 -4.5t-5.5 -5.5l-9 -2h-7q-11 0 -15 2q-6 3 -9.5 5.5t-4.5 4.5q-2 2 -4 5t-7 7q0 5 -1 8.5t-1 10.5v92h-20v-92q0 -7 0.5 -11t1.5 -8q0 -7 5 -14q5 -9 11 -13q2 -2 5.5 -5t7.5 -5
q2 -1 5.5 -2t7.5 -3q5 -1 8.5 -2t9.5 -1q4 0 7 1t10 2q3 2 6 3t7 2q7 5 12 10q5 3 6.5 5.5t3.5 7.5q1 3 3.5 6.5t3.5 7.5v111zM663 631q2 5 3 8.5t1 9.5q0 11 -4.5 19t-11.5 14q-2 1 -3.5 2.5t-5.5 3.5l-6 2q-1 1 -3.5 1t-2.5 3q-5 0 -7 3q-6 1 -8.5 2t-6.5 3q-6 2 -7 3
q-6 4 -6 6v16q1 2 3.5 3.5t2.5 3.5q1 0 3.5 1t3.5 1q4 1 6.5 1.5t5.5 0.5l2 -1q2 -1 4 -1q7 0 8 -5q2 -1 4 -1h4q9 0 13 4l5 2q-1 2 -3 3l-3 4q-3 3 -5.5 5t-6.5 4q-2 0 -4.5 1.5t-7.5 3.5q-4 1 -5.5 1.5t-4.5 0.5q-5 0 -10 -0.5t-8 -1.5q-6 -2 -8.5 -4t-6.5 -3
q-2 -4 -6 -7.5t-5 -6.5q-1 -4 -2.5 -7.5t-1.5 -9.5q0 -5 0.5 -9t3.5 -7q1 -4 4 -7.5t5 -5.5l7 -4.5t9 -3.5q3 -3 6 -4.5t7 -2.5q3 -2 6.5 -2t5.5 -1l6 -2q2 0 4 -2q3 -2 3.5 -3.5t2.5 -5.5q2 -2 2 -5v-10q0 -3 -2 -5q-2 -3 -2.5 -4.5t-3.5 -3.5q-2 -4 -5.5 -5t-4.5 -2
q-3 0 -6 -0.5t-6 -0.5q-4 0 -6.5 0.5t-4.5 0.5q-2 1 -5 2t-3 5l-3 2q-5 4 -12 4h-4q-1 0 -4 -2l-7 -2q0 -5 4 -5q0 -2 3 -4q0 -3 3 -4q0 -1 1 -3h2q8 -8 17 -10.5t19 -2.5q5 0 9.5 0.5t10.5 2.5q4 1 9.5 3t7.5 7q4 2 7.5 5t4.5 9zM1598 631q6 9 6 18q0 11 -4 19t-13 14
q-5 4 -6 6q-2 0 -4.5 0.5t-4.5 1.5q0 1 -3 1t-5 3h-3q-2 1 -4 3q-3 1 -5 2t-5 3q-8 2 -9 3q-4 2 -5 3.5t-2 2.5q0 2 -1 3.5t-1 4.5q0 4 4 8q1 3 5 7q2 0 3 1t6 1q1 2 9 2q1 0 3.5 -1t4.5 -1q2 -2 8 -5q7 -1 9 -1q6 0 9 4l6 2q-1 2 -3.5 3.5t-4.5 3.5q-1 3 -3.5 5t-5.5 4
q-4 0 -6 1.5t-6 3.5q-3 1 -6.5 1.5t-4.5 0.5q-5 0 -9.5 -0.5t-8.5 -1.5l-14 -7q-4 -4 -6 -7.5t-5 -6.5q-2 -4 -3.5 -7.5t-1.5 -9.5q0 -5 1.5 -9t3.5 -7q4 -8 9 -13l6.5 -4.5t6.5 -3.5q5 -3 9 -4.5t7 -2.5q4 -2 5.5 -2t5.5 -1q2 -1 5 -1.5t5 -2.5t4.5 -3.5t2.5 -5.5
q2 -2 2.5 -4.5t0.5 -5.5q0 -2 -0.5 -5t-2.5 -5q-1 -6 -7 -8q-5 -4 -6.5 -5t-3.5 -2q-5 0 -6.5 -0.5t-4.5 -0.5t-6.5 0.5t-5.5 0.5q-5 2 -10 7l-2 2q-5 4 -10 4h-5q-3 0 -4 -2l-6 -2q1 -2 1 -3.5t3 -1.5q0 -1 0.5 -2t0.5 -2l2 -2q1 -1 1 -2q5 -3 7 -3q6 -8 15 -10.5t19 -2.5
q5 0 10 0.5t11 2.5q3 1 7 3t9 7l5 5q3 3 5 9zM1741 317h-16v138h13q2 0 4.5 -0.5t4.5 -3.5l73 -102q2 -1 2 -4l2 -3v113h15v-138h-13l-82 114v3h-3v-117zM78 351q-4 4 -5.5 8t-2.5 8q-3 6 -3.5 10t-0.5 10q0 7 4 16q1 4 2.5 9.5t5.5 8.5l3.5 8.5t7.5 6.5q1 2 5 5.5t7 5.5
q6 3 9.5 4.5t7.5 3.5q4 0 9.5 1.5t11.5 1.5q7 0 13.5 -2t13.5 -5q8 -2 13.5 -5.5t9.5 -9.5q-2 -2 -4 -2v-3h-3q0 -1 -2 -1h-3q-6 0 -7 1q-4 2 -7.5 4.5t-7.5 2.5q-5 1 -8 1h-8q-6 0 -11.5 -0.5t-9.5 -0.5q-6 -3 -11 -6t-9 -6q-4 -5 -6.5 -9t-4.5 -10q-4 -5 -4.5 -11t-0.5 -9
q0 -8 3 -15q1 -4 2.5 -7.5t1.5 -7.5l4 -5q3 -2 5 -5q4 -2 7 -5t7 -3q2 -3 5.5 -4.5t7.5 -2.5q3 -1 6 -1h16q4 0 10 1q3 1 8.5 2.5t8.5 4.5v29h-14l-1 2q-2 1 -3 2t-3 2l-2 1q-1 2 -1 4l-1 1v4h40v-53q-3 -5 -5 -6t-6 -5q-5 -1 -12 -1q-6 -2 -13 -2h-35q-4 1 -7.5 2.5
t-9.5 5.5q-3 1 -7 4t-5 7q-6 3 -7.5 7t-3.5 8zM2374 758h-18q-5 0 -9 -4q-7 -4 -7 -8l-36 -47l-2 -1q0 -1 -2 -1l-1 2l-37 47q-3 5 -6 8q-4 4 -11 4h-17l57 -76l1 -3q0 -1 2 -1l1 -2v-2l1 -1v-68h23v68q1 0 1 3q1 0 2 3v3h1zM240 438v-43h55v-16h-55v-47h68v-15h-85v138h85
v-17h-68zM1171 438v-43h59v-16h-59v-47h68v-15h-83v138h83v-17h-68zM642 455v-85q0 -5 2 -8.5t5 -5.5q1 -6 3.5 -8.5t4.5 -6.5q1 -2 4.5 -4t5.5 -4q5 -2 9 -2h16q3 0 6 2q5 2 8 4t7 4q1 4 3.5 6.5t4.5 8.5q4 5 4 14v85h14v-85q0 -6 -1 -10.5t-3 -10.5q-1 -7 -4.5 -11
t-7.5 -7q-3 -5 -7.5 -8t-9.5 -4q-11 -2 -22 -2t-24 2q-3 1 -7 4t-9 8q-6 6 -11 18q-2 6 -4 10.5t-2 10.5v85h15zM2252 624h-66v134h-23v-153h89v19zM1270 624h-66v134h-21v-153h87v19zM1453 336q2 3 4 9q2 2 2.5 5.5t0.5 5.5q0 8 -1 11q-2 1 -3 3.5t-3 3.5q-3 3 -9 5
q-4 0 -6 1.5t-7 2.5q-3 1 -6.5 3t-4.5 3q-11 1 -15 8q-3 0 -5 3t-4 5v15q0 6 0.5 9.5t1.5 6.5q1 8 9 11l7 4q3 2 8 4q3 0 5.5 1.5t8.5 1.5q2 0 5.5 -1.5t4.5 -1.5q3 0 5 -1.5t5 -2.5t4.5 -2.5t1.5 -3.5q6 -1 7 -3.5t2 -3.5l-3 -2q-3 -2 -9 -2h-6q-4 3 -4 4h-9l-1 1h-3
q-7 0 -9 -1q-7 0 -7 -2q-7 -5 -7 -8q-3 0 -3 -8q0 -5 3 -6q0 -4 4 -7q1 -1 3.5 -2.5t3.5 -1.5q4 -3 6.5 -3.5t7.5 -2.5q1 0 3.5 -0.5t2.5 -1.5q2 0 4 -0.5t5 -4.5h2v-1h2q2 0 3 -1l2 -1q6 -4 8 -7t5 -6q2 -9 2 -18q0 -6 -0.5 -10t-4.5 -7q-1 -7 -10 -13q-2 -3 -6 -4.5
t-7 -2.5q-4 -2 -9 -2h-11q-8 0 -16 1.5t-15 7.5q-1 0 -2.5 2.5t-4.5 4.5q0 2 -1 4l-1 2l3 3q1 1 4 1h2q3 0 5 -1.5t5 -2.5q4 -3 6.5 -4.5t5.5 -2.5q1 -1 4 -1h5q9 0 11 1q7 0 13 4zM1070 317l-61 138h6q6 0 10 -3q1 -1 2 -1.5t3 -3.5l44 -104v-4q1 -3 2 -5v6q1 2 1 3
l13.5 26t11.5 26q4 15 10 27.5l12 24.5q1 3 3 3.5t2 1.5q3 2 4 2.5t4 0.5h8l-15.5 -34.5t-15.5 -33.5l-15 -36l-14 -34h-15zM532 438v-48h60v-13h-60v-60h-16v138h86v-17h-70zM1957 438v-48h57v-13h-57v-60h-16v138h85v-17h-69zM370 317v121h-46v17h106v-17h-46v-121h-14z
M785 455v-123h62v-15h-79v138h17zM271 730q2 -3 3 -6t3 -5q1 -4 1 -10v-5q0 -2 -1 -5q-2 -2 -3 -5t-3 -4q-3 -4 -9 -7q-5 -1 -10 -1h-35v54h35q7 0 10 -2q3 0 5.5 -2t3.5 -2zM878 455v-123h64v-15h-79v138h15zM1325 390q5 0 6 4q3 1 5 2t5 1l2 4q1 2 3 4q0 2 1 5t1 8
q0 1 -1 2.5t-1 5.5q-2 2 -3 3.5t-2 4.5q-3 0 -5 1.5t-5 2.5h-42v-48h36zM2102 394q1 1 3 2t4 1q5 6 5 8q1 5 1 13q0 3 -1 8q0 2 -5 8q-2 0 -4 1.5t-3 2.5h-43v-48h34q5 0 9 4zM519 703q0 -1 -5 -8q-2 -1 -3 -2.5t-4 -2.5q-2 -2 -9 -2h-33v48h33q4 0 9 -2q3 0 4 -1.5t3 -2.5
q3 -5 5 -9q3 -2 3 -10q0 -6 -3 -8zM684 129l-27 68q0 1 -1 3t-1 3q0 4 -1 6v-6q0 -1 -1.5 -3t-1.5 -3l-28 -68h61zM1524 455v-138h-16v138h16zM1091 728q1 -2 1 -5l29 -64h-60l28 64q0 3 1 4v2zM1756 81q5 0 6 -6q1 -1 1 -5v-4q0 -6 -1 -9q-1 -5 -6 -9q-3 -1 -7 -4
q-1 -1 -3.5 -1.5t-5.5 -0.5q-2 0 -5 0.5t-4 1.5q-2 1 -4 2.5t-4 1.5q-1 2 -2.5 4t-4.5 5q-1 3 -1 9v4q0 4 1 5l4 4q2 2 3 2q5 6 8 6q1 3 4 3.5t5 0.5q3 0 5.5 -0.5t3.5 -3.5q4 0 7 -6z" />
    <glyph glyph-name="two" unicode="2" 
d="M2479 1091v-585h-2405v585h912q0 31 4.5 59.5t18.5 54.5q12 27 27 51t37 43q38 40 92 61q26 13 54 18t57 5q33 0 61.5 -6t53.5 -18q29 -13 52.5 -29t42.5 -35q36 -37 62 -94q19 -54 19 -110h912zM1030 1193q-21 -47 -21 -102q0 -56 21 -103q11 -24 25 -45.5t31 -41.5
q18 -18 39.5 -32.5t45.5 -24.5q48 -23 105 -23q30 0 55.5 5t48.5 15q25 11 45.5 25t39.5 33q19 18 33.5 39.5t25.5 44.5q23 53 23 108q0 24 -4.5 47.5t-13.5 44.5q-13 40 -42 75q-14 17 -30 30.5t-33 25.5l-38.5 19.5t-39.5 15.5q-15 5 -32.5 7.5t-37.5 2.5q-29 0 -55.5 -6
t-51.5 -18q-48 -18 -84 -57q-17 -18 -30.5 -40t-24.5 -45zM1141 935l315 319q30 -39 46 -80t16 -83q0 -22 -3.5 -43.5t-11.5 -41.5q-8 -18 -18 -35.5t-23 -35.5h-321zM1094 928q-27 35 -44 75q-8 19 -11 42t-3 46q0 22 3 42t11 40q5 20 15.5 37t23.5 34h321zM1134 207
q3 -5 5 -11t6 -14q2 -7 2 -14v-31q0 -7 -2 -13q-4 -7 -6 -14t-5 -13l-8.5 -11t-9.5 -11q-7 -5 -11.5 -9.5t-11.5 -7.5q-5 -6 -12 -8t-13 -5q-9 -1 -16.5 -2t-14.5 -1q-11 0 -21.5 2.5t-21.5 5.5q-12 5 -20 11t-16 14q-15 16 -23 35q-4 11 -6 21.5t-2 22.5q0 7 0.5 14t2.5 14
q4 16 12 25q4 8 8 13t8 11q6 5 11.5 9l12.5 9l11.5 5.5t15.5 5.5q5 1 12 2t16 1q7 0 14.5 -1t16.5 -2q6 -3 13 -5.5t12 -5.5q7 -5 11.5 -9t11.5 -9l9.5 -11t8.5 -13zM2195 207q3 -5 6 -11t5 -14q3 -7 3 -14v-31q0 -7 -3 -13q-2 -7 -5 -14t-6 -13q-6 -11 -16 -22l-13 -9.5
t-11 -7.5q-7 -6 -13.5 -8t-14.5 -5q-6 -1 -13 -2t-16 -1q-21 0 -43 8q-9 5 -17.5 11t-16.5 14q-7 7 -13.5 15.5t-9.5 19.5q-5 11 -7 21.5t-2 22.5q0 7 1 14t1 14q3 8 6.5 14l6.5 11q3 8 7 13t10 11q5 5 10.5 9l12.5 9q5 3 12 5.5t13 5.5q9 1 16 2t13 1q9 0 16 -1t13 -2
l14.5 -5.5t13.5 -5.5q5 -5 11 -9l13 -9q3 -6 8.5 -11t7.5 -13zM2433 260q1 0 2 1t6 1h38v-218h-38v159q-2 -1 -2.5 -3.5t-2.5 -6.5q-1 -3 -1 -5.5t-1 -5.5l-14.5 -34.5t-15.5 -33.5q-5 -17 -12 -34t-14 -36h-38l-55 138q-3 4 -3 11q-1 3 -3 4l-1 1v-154h-41v218h38
q6 0 7.5 -1t2.5 -1q3 -2 4 -2t3 -1l7 -5q1 -2 3 -4t2 -4q5 -16 12 -32l14 -33q6 -17 12.5 -33.5t13.5 -31.5v-11q2 0 3 -4q0 4 2 4v5q0 2 0.5 3.5t0.5 2.5l8 15l45 115q0 2 1 4l2 4q1 2 4 3t3 2q2 1 4 1t4 2zM1330 262h39v-218h-38l-101 147l-3 1l-1 2q-3 4 -3 7q-4 1 -4 4
q-1 1 -1.5 2t-2.5 2v-165h-40v218h36q4 0 7.5 -1t4.5 -3q4 -1 6 -2t4 -3l22 -32q11 -16 21 -34q14 -14 24.5 -29.5t24.5 -30.5q0 -3 1 -5.5t2 -6.5q0 -1 1 -3t1 -4v154zM672 262l94 -218h-24q-9 0 -17 4q-3 2 -4.5 6.5t-5.5 8.5l-12 28h-100l-11 -28q-1 -4 -2 -5t-3 -1
q-1 -5 -3 -6l-4 -3q-2 0 -3.5 -1.5t-4.5 -1.5q0 -1 -3 -1h-28l95 218h36zM260 262h139v-38h-99v-50h80v-40h-80v-53h99v-37h-139v218zM1966 659q1 7 1 11v22q0 6 -1 10q-3 9 -9 19q-4 6 -14 15q-2 3 -5.5 6t-7.5 8q-5 1 -10 3l-10 4q-5 1 -9 1.5t-11 0.5q-6 0 -11 -0.5
t-9 -1.5q-12 -4 -20 -7q-4 -5 -7.5 -8t-7.5 -6q-4 -4 -7 -7.5t-6 -7.5q-2 -6 -4.5 -10t-3.5 -9q-3 -10 -3 -23q0 -6 1.5 -14t5.5 -14q5 -16 17 -27q5 -5 11 -9t13 -5q13 -6 31 -6h11q4 0 9 1q5 2 10 3.5t10 4.5q4 4 7.5 6t5.5 5q10 7 14 17q6 9 9 18zM838 659q1 7 2 11t1 9
q0 13 -3 23q-1 5 -3.5 9t-4.5 10q-4 6 -13 15q-3 3 -7 6t-10 8q-3 1 -7 3t-10 4q-5 1 -10 1.5t-11 0.5q-5 0 -10 -0.5t-10 -1.5q-6 -2 -10.5 -4t-8.5 -3q-4 -5 -8 -8t-9 -6q-3 -4 -6 -7.5t-5 -7.5q-4 -6 -5 -10t-3 -9q-3 -10 -3 -23q0 -6 2 -14t4 -14q3 -8 7.5 -14.5
l8.5 -12.5q7 -5 13.5 -9t14.5 -5q12 -6 28 -6h11q5 0 10 1q11 4 17 8q13 6 17 11q6 7 13 17q2 5 4.5 9.5t3.5 8.5zM74 262h159v-24q0 -2 -2 -4q0 -5 -1.5 -6.5t-4.5 -3.5l-106 -145h2l1 2h109v-37h-165v13q0 8 1 11q0 2 6 8l1 4l2 4q2 2 3.5 4.5t2.5 5.5l95 130h-103v38z
M1839 203q-8 -9 -15 -24q-2 -5 -4 -11.5t-2 -13.5q0 -8 2 -14.5l4 -12.5q3 -9 6.5 -14.5t8.5 -9.5q4 -5 10 -8.5l13 -7.5q8 -3 14.5 -4.5t13.5 -1.5t11 1.5t9 1.5q5 2 10 5t10 7q4 1 7 2h13q4 0 7 -1q6 -2 9 -6l7 -10q-6 -8 -16 -15q-6 -3 -11 -6t-11 -6q-5 -4 -10.5 -5.5
t-11.5 -3.5t-11 -2.5t-12 -0.5q-13 0 -23.5 2.5t-20.5 5.5q-21 10 -35 25q-16 16 -24 35q-4 11 -6.5 21.5t-2.5 22.5q0 7 1 14t3 14q1 8 3.5 14t7.5 11q5 8 8.5 13t9.5 11q6 5 11.5 9l12.5 9q5 3 11 5.5t15 5.5q6 1 13.5 2t15.5 1h12q5 0 11 -3q6 -2 11.5 -3.5t10.5 -3.5
q6 -3 11 -6t11 -7q10 -9 16 -16l-7 -9q-3 -3 -5 -4.5t-4 -3.5h-14q-3 0 -6.5 0.5t-6.5 2.5q-5 4 -10 6.5t-10 5.5q-5 1 -9 1.5t-11 0.5q-16 0 -28 -6q-7 -3 -13 -6.5t-10 -8.5zM1690 149q3 -3 6 -7t4 -9q1 -4 3 -9t2 -12q0 -14 -7 -28l-8 -12q-4 -6 -9 -9l-11 -9t-13 -6
q-7 -3 -15 -4.5t-14 -1.5q-8 0 -15.5 1.5t-16.5 4.5q-7 2 -12 6.5l-12 10.5q-4 2 -6 6l-4 8q-5 2 -6 12h1q1 1 5 3l1 1q1 1 3 2h4l2 1h12q3 0 4 -1q7 0 10 -3q4 -3 8 -5.5t6 -4.5q2 0 6 -1.5t10 -1.5q2 0 5 0.5t8 2.5q6 2 11 7q6 3 9 7t4.5 7t1.5 7q0 7 -6 11q-4 6 -9 6
q-2 4 -5.5 5t-5.5 3q-7 1 -15 6q-6 1 -10.5 2t-10.5 4q-7 4 -11.5 7t-8.5 7q-5 3 -8.5 7.5t-4.5 8.5q-6 12 -6 24q0 18 6 26q2 7 6 11l9 9q4 3 9.5 5.5t13.5 5.5q5 1 11 2t13 1q4 0 8.5 -1t9.5 -2q6 -2 9 -3.5t8 -3.5q4 -3 7.5 -6t6.5 -7q2 -2 6 -5.5t5 -6.5l-8 -5
q-2 -1 -5 -3t-4 -5h-18q-7 2 -7 3q-3 1 -6 4q-2 0 -3 0.5t-2 0.5q-5 1 -7 1q-8 0 -12 -1q-3 0 -4 -1t-5 -3q-2 -1 -6 -7q-1 -3 -1 -9t1 -6q3 -3 4 -4.5t2 -5.5q4 0 6.5 -0.5t6.5 -1.5q4 -2 9.5 -4.5t8.5 -3.5l8 -2q6 -4 11 -6t11 -6q9 -3 16 -14zM1104 127q2 6 3 12.5
t1 14.5q0 12 -4 25q-3 10 -7.5 14.5t-10.5 9.5q-3 5 -8.5 8.5t-12.5 6.5q-12 6 -28 6t-28 -6l-10.5 -6.5t-10.5 -8.5q-7 -5 -10 -9.5t-6 -14.5q-5 -5 -5.5 -11.5t-0.5 -13.5q0 -8 0.5 -14.5t5.5 -12.5q3 -9 6 -14.5t10 -9.5q5 -5 10.5 -8.5t10.5 -7.5q6 -3 13 -4.5t15 -1.5
q7 0 14 1.5t14 4.5q7 4 12.5 7.5t8.5 8.5q6 4 10.5 9.5t7.5 14.5zM2283 336q-6 -5 -11.5 -9t-12.5 -7q-6 -2 -12 -2.5t-13 -0.5q-9 0 -16.5 0.5t-13.5 2.5q-13 4 -23 16q-4 4 -7.5 9.5l-7.5 11.5l-4 15.5t-2 14.5q0 3 1 7.5t2 8.5t2.5 9.5t4.5 8.5q3 5 6 8.5t5 6.5
q5 2 8.5 5.5t7.5 5.5q5 3 9.5 4.5t7.5 3.5q6 0 9.5 1.5t10.5 1.5q3 0 7.5 -1.5t10.5 -1.5l9 -3.5t7 -4.5q4 -2 8.5 -5.5t6.5 -5.5l4.5 -6.5t4.5 -8.5q6 -7 8 -18q2 -4 3 -8.5t1 -7.5q0 -7 -1 -14.5t-5 -15.5q-1 -6 -5.5 -11.5t-9.5 -9.5zM2164 127q6 12 6 27q0 7 -2 13.5
t-4 11.5q-2 10 -5.5 14.5t-8.5 9.5q-9 10 -24 15q-5 4 -12 5t-16 1q-14 0 -27 -6q-6 -3 -11.5 -6.5t-10.5 -8.5t-9 -9.5t-8 -14.5q-1 -5 -2 -11.5t-1 -13.5q0 -8 1 -14.5l2 -12.5q7 -16 17 -24q5 -5 10.5 -8.5l11.5 -7.5q7 -3 14.5 -4.5t12.5 -1.5q9 0 16 1.5t12 4.5
l13.5 7.5t10.5 8.5q10 9 14 24zM1579 336q-12 9 -17 21q-6 14 -6 30q0 3 0.5 7.5t0.5 8.5q6 11 9 18q5 8 13 15q6 8 12 11q5 3 9.5 4.5t9.5 3.5q4 0 8 1.5t10 1.5q5 0 10.5 -1.5t10.5 -1.5q3 -2 7.5 -3.5t8.5 -4.5q3 -2 6.5 -5.5t6.5 -5.5q4 -3 5.5 -6.5t6.5 -8.5
q3 -7 7 -18q1 -4 2 -8.5t1 -7.5q0 -7 -1.5 -14.5t-5.5 -15.5q-2 -6 -6 -11.5t-9 -9.5q-5 -5 -10.5 -9t-13.5 -7t-26 -3q-8 0 -15 0.5t-12 2.5q-15 4 -22 16zM775 262h139v-38h-100v-57h82v-38h-82v-85h-39v218zM572 224h-60v-180h-42v180h-64v38h166v-38zM1188 864
q-19 9 -37.5 20.5t-34.5 25.5h322q-16 -14 -34.5 -25.5t-38.5 -20.5q-21 -6 -43.5 -11.5t-45.5 -5.5q-24 0 -45 5.5zM1365 1315q20 -8 38.5 -20t33.5 -24h-323q35 30 74 44q39 18 88 18t89 -18zM1389 262h165v-38h-65v-180h-39v180h-61v38zM560 605l-48 66q3 1 6 1.5t6 3.5
q7 3 8 10q3 2 5.5 5.5t3.5 7.5v23q0 4 -2 8q-4 7 -10 13q-4 9 -15 9q-2 3 -7 4.5t-9 1.5h-55v-153h22v63h24l39 -55q2 -4 7 -6q2 -2 4 -2h21zM801 721q5 -3 9 -8.5t6 -9.5q1 -5 2.5 -11t1.5 -13q0 -5 -1.5 -10.5t-2.5 -11.5q-2 -4 -6 -8.5t-9 -7.5q-2 -4 -6.5 -7t-9.5 -7
q-4 -2 -10.5 -3t-12.5 -1q-11 0 -23 4q-4 4 -8.5 7t-9.5 7q-2 3 -6 7.5t-6 8.5q-3 6 -4 11.5t-1 10.5q0 12 5 24q2 4 6 9.5t6 8.5q5 5 9.5 7.5t8.5 5.5q7 2 12.5 3t10.5 1q12 0 23 -4l9.5 -5.5t6.5 -7.5zM1169 605l-67 153h-21l-68 -153h13q8 0 10 2q1 2 2 3t4 3l10 26h79
l9 -26q3 -4 7 -6q1 -2 9 -2h13zM1931 721q3 -3 6.5 -8.5t5.5 -9.5q2 -5 3 -11t1 -13q0 -11 -4 -22q-2 -4 -5.5 -8.5t-6.5 -7.5q-5 -4 -9.5 -7t-8.5 -7q-11 -4 -23 -4q-6 0 -12 1t-10 3q-6 4 -10 7t-8 7q-4 3 -7 7.5t-4 8.5q-3 6 -4.5 11.5t-1.5 10.5q0 12 6 24q1 4 4 9.5
t7 8.5q4 5 8 7.5t10 5.5q9 4 22 4q7 0 11.5 -1t11.5 -3q4 -3 8.5 -5.5t9.5 -7.5zM295 690q7 12 7 19q0 5 -1.5 9.5t-5.5 11.5q0 2 -4 5l-6 7q-2 4 -5.5 7t-8.5 3q-3 3 -8.5 4.5t-10.5 1.5h-54v-153h19v57h35q5 0 10.5 0.5t8.5 3.5q10 4 14 9q3 3 6.5 7t3.5 8zM2126 758h-21
v-119q-2 2 -2.5 5t-2.5 5l-74 103l-5 5q-1 0 -4 0.5t-5 0.5h-16v-153h23v125h1v-4l1 -3l88 -118h17v153zM1579 407q-4 -5 -5.5 -11t-1.5 -9q0 -4 0.5 -8t1.5 -7q1 -7 7 -15q1 -2 3 -4.5t4 -5.5l5 -5q3 -3 8 -3q3 -3 6.5 -4.5t5.5 -2.5q4 -1 8 -1h14q6 0 8 1q3 1 6 2.5t8 4.5
q2 0 5 3l5 5q2 3 5 5.5t4 4.5q2 4 3 7.5t2 7.5q1 3 1.5 7t0.5 8q0 3 -1 9t-4 11q-1 6 -4.5 10t-6.5 9q-3 3 -8 6l-10 6q-4 0 -9.5 0.5t-11.5 0.5q-7 0 -11.5 -0.5t-10.5 -0.5q-4 -3 -9.5 -6t-8.5 -6l-5.5 -9t-3.5 -10zM2225 331h15q4 0 9 1q3 1 5.5 2.5t4.5 4.5q3 0 6.5 3
t7.5 5q2 3 3.5 5.5t4.5 4.5q1 4 2.5 7.5t1.5 7.5q1 3 1 7v8q0 3 -0.5 9t-0.5 11q-2 6 -6 10t-6 9q-6 3 -10.5 6t-8.5 6q-4 0 -10 0.5t-10 0.5q-7 0 -12 -0.5t-11 -0.5q-6 -3 -10 -6t-7 -6q-5 -5 -8 -9t-5 -10q-2 -5 -2 -11v-24q1 -4 2 -7.5t5 -7.5q1 -2 3 -4.5t5 -5.5l5 -5
q3 -3 5 -3q3 -3 6 -4.5t8 -2.5q3 -1 7 -1zM997 758h-19v-118l-2 4q-1 3 -1 5l-74 103q-4 0 -7 5q-2 0 -5 0.5t-5 0.5h-14v-153h21v125l2 -1l1 -2v-4l88 -118h15v153zM2114 381q-7 -2 -12 -4l44 -60h-11q-4 0 -8 2q-1 1 -2 1.5t-2 4.5l-39 52h-25v-60h-17v138h51
q3 0 6.5 -0.5t9.5 -2.5q3 -1 6 -3t4 -4q4 -3 5.5 -6.5t6.5 -7.5q0 -3 0.5 -7.5t0.5 -5.5q0 -5 -0.5 -8.5t-0.5 -6.5q-3 -4 -4.5 -8t-2.5 -5zM1343 381q-2 -2 -12 -4l47 -60h-9q-3 0 -6 0.5t-3 1.5q-2 1 -4 1.5t-3 4.5l-39 52h-25v-60h-15v138h51q3 0 6 -0.5t7 -2.5
q7 -2 15 -7q1 -3 3.5 -6.5t3.5 -7.5q2 -3 2 -8v-14q0 -3 -2 -6q0 -4 -1.5 -8t-3.5 -5l-5 -5q-2 -2 -7 -4zM2460 452q3 2 4 2.5t3 0.5h12v-138h-14v114q0 -1 -2 -3v-2q-4 -8 -7 -17t-7 -14l-5.5 -14.5t-7.5 -13.5q-2 -8 -4 -14t-5 -12l-7 -12.5t-5 -11.5h-15
q-9 12 -14.5 25.5l-11.5 27.5q-5 14 -11.5 28t-11.5 28v2q-3 0 -3 1v-112h-16v138h14q5 0 7 -3q2 -1 2.5 -1.5t0.5 -3.5l48 -108q0 -3 3 -3v-1l1 2q1 2 1 4q0 4 5 8l41 98q2 3 3 3.5t2 1.5zM411 758h-95v-153h95v19h-73v47h60v20h-60v45h73v22zM1723 758h-94v-153h94v19h-73
v47h60v20h-60v45h73v22zM1479 758h-20v-103q0 -3 -3 -8q-1 -7 -10 -12q-1 -2 -4.5 -4.5t-5.5 -5.5l-9 -2h-7q-11 0 -15 2q-6 3 -9.5 5.5t-4.5 4.5q-2 2 -4 5t-7 7q0 5 -1 8.5t-1 10.5v92h-20v-92q0 -7 0.5 -11t1.5 -8q0 -7 5 -14q5 -9 11 -13q2 -2 5.5 -5t7.5 -5
q2 -1 5.5 -2t7.5 -3q5 -1 8.5 -2t9.5 -1q4 0 7 1t10 2q3 2 6 3t7 2q7 5 12 10q5 3 6.5 5.5t3.5 7.5q1 3 3.5 6.5t3.5 7.5v111zM663 631q2 5 3 8.5t1 9.5q0 11 -4.5 19t-11.5 14q-2 1 -3.5 2.5t-5.5 3.5l-6 2q-1 1 -3.5 1t-2.5 3q-5 0 -7 3q-6 1 -8.5 2t-6.5 3q-6 2 -7 3
q-6 4 -6 6v16q1 2 3.5 3.5t2.5 3.5q1 0 3.5 1t3.5 1q4 1 6.5 1.5t5.5 0.5l2 -1q2 -1 4 -1q7 0 8 -5q2 -1 4 -1h4q9 0 13 4l5 2q-1 2 -3 3l-3 4q-3 3 -5.5 5t-6.5 4q-2 0 -4.5 1.5t-7.5 3.5q-4 1 -5.5 1.5t-4.5 0.5q-5 0 -10 -0.5t-8 -1.5q-6 -2 -8.5 -4t-6.5 -3
q-2 -4 -6 -7.5t-5 -6.5q-1 -4 -2.5 -7.5t-1.5 -9.5q0 -5 0.5 -9t3.5 -7q1 -4 4 -7.5t5 -5.5l7 -4.5t9 -3.5q3 -3 6 -4.5t7 -2.5q3 -2 6.5 -2t5.5 -1l6 -2q2 0 4 -2q3 -2 3.5 -3.5t2.5 -5.5q2 -2 2 -5v-10q0 -3 -2 -5q-2 -3 -2.5 -4.5t-3.5 -3.5q-2 -4 -5.5 -5t-4.5 -2
q-3 0 -6 -0.5t-6 -0.5q-4 0 -6.5 0.5t-4.5 0.5q-2 1 -5 2t-3 5l-3 2q-5 4 -12 4h-4q-1 0 -4 -2l-7 -2q0 -5 4 -5q0 -2 3 -4q0 -3 3 -4q0 -1 1 -3h2q8 -8 17 -10.5t19 -2.5q5 0 9.5 0.5t10.5 2.5q4 1 9.5 3t7.5 7q4 2 7.5 5t4.5 9zM1598 631q6 9 6 18q0 11 -4 19t-13 14
q-5 4 -6 6q-2 0 -4.5 0.5t-4.5 1.5q0 1 -3 1t-5 3h-3q-2 1 -4 3q-3 1 -5 2t-5 3q-8 2 -9 3q-4 2 -5 3.5t-2 2.5q0 2 -1 3.5t-1 4.5q0 4 4 8q1 3 5 7q2 0 3 1t6 1q1 2 9 2q1 0 3.5 -1t4.5 -1q2 -2 8 -5q7 -1 9 -1q6 0 9 4l6 2q-1 2 -3.5 3.5t-4.5 3.5q-1 3 -3.5 5t-5.5 4
q-4 0 -6 1.5t-6 3.5q-3 1 -6.5 1.5t-4.5 0.5q-5 0 -9.5 -0.5t-8.5 -1.5l-14 -7q-4 -4 -6 -7.5t-5 -6.5q-2 -4 -3.5 -7.5t-1.5 -9.5q0 -5 1.5 -9t3.5 -7q4 -8 9 -13l6.5 -4.5t6.5 -3.5q5 -3 9 -4.5t7 -2.5q4 -2 5.5 -2t5.5 -1q2 -1 5 -1.5t5 -2.5t4.5 -3.5t2.5 -5.5
q2 -2 2.5 -4.5t0.5 -5.5q0 -2 -0.5 -5t-2.5 -5q-1 -6 -7 -8q-5 -4 -6.5 -5t-3.5 -2q-5 0 -6.5 -0.5t-4.5 -0.5t-6.5 0.5t-5.5 0.5q-5 2 -10 7l-2 2q-5 4 -10 4h-5q-3 0 -4 -2l-6 -2q1 -2 1 -3.5t3 -1.5q0 -1 0.5 -2t0.5 -2l2 -2q1 -1 1 -2q5 -3 7 -3q6 -8 15 -10.5t19 -2.5
q5 0 10 0.5t11 2.5q3 1 7 3t9 7l5 5q3 3 5 9zM1741 317h-16v138h13q2 0 4.5 -0.5t4.5 -3.5l73 -102q2 -1 2 -4l2 -3v113h15v-138h-13l-82 114v3h-3v-117zM78 351q-4 4 -5.5 8t-2.5 8q-3 6 -3.5 10t-0.5 10q0 7 4 16q1 4 2.5 9.5t5.5 8.5l3.5 8.5t7.5 6.5q1 2 5 5.5t7 5.5
q6 3 9.5 4.5t7.5 3.5q4 0 9.5 1.5t11.5 1.5q7 0 13.5 -2t13.5 -5q8 -2 13.5 -5.5t9.5 -9.5q-2 -2 -4 -2v-3h-3q0 -1 -2 -1h-3q-6 0 -7 1q-4 2 -7.5 4.5t-7.5 2.5q-5 1 -8 1h-8q-6 0 -11.5 -0.5t-9.5 -0.5q-6 -3 -11 -6t-9 -6q-4 -5 -6.5 -9t-4.5 -10q-4 -5 -4.5 -11t-0.5 -9
q0 -8 3 -15q1 -4 2.5 -7.5t1.5 -7.5l4 -5q3 -2 5 -5q4 -2 7 -5t7 -3q2 -3 5.5 -4.5t7.5 -2.5q3 -1 6 -1h16q4 0 10 1q3 1 8.5 2.5t8.5 4.5v29h-14l-1 2q-2 1 -3 2t-3 2l-2 1q-1 2 -1 4l-1 1v4h40v-53q-3 -5 -5 -6t-6 -5q-5 -1 -12 -1q-6 -2 -13 -2h-35q-4 1 -7.5 2.5
t-9.5 5.5q-3 1 -7 4t-5 7q-6 3 -7.5 7t-3.5 8zM2374 758h-18q-5 0 -9 -4q-7 -4 -7 -8l-36 -47l-2 -1q0 -1 -2 -1l-1 2l-37 47q-3 5 -6 8q-4 4 -11 4h-17l57 -76l1 -3q0 -1 2 -1l1 -2v-2l1 -1v-68h23v68q1 0 1 3q1 0 2 3v3h1zM240 438v-43h55v-16h-55v-47h68v-15h-85v138h85
v-17h-68zM1171 438v-43h59v-16h-59v-47h68v-15h-83v138h83v-17h-68zM642 455v-85q0 -5 2 -8.5t5 -5.5q1 -6 3.5 -8.5t4.5 -6.5q1 -2 4.5 -4t5.5 -4q5 -2 9 -2h16q3 0 6 2q5 2 8 4t7 4q1 4 3.5 6.5t4.5 8.5q4 5 4 14v85h14v-85q0 -6 -1 -10.5t-3 -10.5q-1 -7 -4.5 -11
t-7.5 -7q-3 -5 -7.5 -8t-9.5 -4q-11 -2 -22 -2t-24 2q-3 1 -7 4t-9 8q-6 6 -11 18q-2 6 -4 10.5t-2 10.5v85h15zM2252 624h-66v134h-23v-153h89v19zM1270 624h-66v134h-21v-153h87v19zM1453 336q2 3 4 9q2 2 2.5 5.5t0.5 5.5q0 8 -1 11q-2 1 -3 3.5t-3 3.5q-3 3 -9 5
q-4 0 -6 1.5t-7 2.5q-3 1 -6.5 3t-4.5 3q-11 1 -15 8q-3 0 -5 3t-4 5v15q0 6 0.5 9.5t1.5 6.5q1 8 9 11l7 4q3 2 8 4q3 0 5.5 1.5t8.5 1.5q2 0 5.5 -1.5t4.5 -1.5q3 0 5 -1.5t5 -2.5t4.5 -2.5t1.5 -3.5q6 -1 7 -3.5t2 -3.5l-3 -2q-3 -2 -9 -2h-6q-4 3 -4 4h-9l-1 1h-3
q-7 0 -9 -1q-7 0 -7 -2q-7 -5 -7 -8q-3 0 -3 -8q0 -5 3 -6q0 -4 4 -7q1 -1 3.5 -2.5t3.5 -1.5q4 -3 6.5 -3.5t7.5 -2.5q1 0 3.5 -0.5t2.5 -1.5q2 0 4 -0.5t5 -4.5h2v-1h2q2 0 3 -1l2 -1q6 -4 8 -7t5 -6q2 -9 2 -18q0 -6 -0.5 -10t-4.5 -7q-1 -7 -10 -13q-2 -3 -6 -4.5
t-7 -2.5q-4 -2 -9 -2h-11q-8 0 -16 1.5t-15 7.5q-1 0 -2.5 2.5t-4.5 4.5q0 2 -1 4l-1 2l3 3q1 1 4 1h2q3 0 5 -1.5t5 -2.5q4 -3 6.5 -4.5t5.5 -2.5q1 -1 4 -1h5q9 0 11 1q7 0 13 4zM1070 317l-61 138h6q6 0 10 -3q1 -1 2 -1.5t3 -3.5l44 -104v-4q1 -3 2 -5v6q1 2 1 3
l13.5 26t11.5 26q4 15 10 27.5l12 24.5q1 3 3 3.5t2 1.5q3 2 4 2.5t4 0.5h8l-15.5 -34.5t-15.5 -33.5l-15 -36l-14 -34h-15zM532 438v-48h60v-13h-60v-60h-16v138h86v-17h-70zM1957 438v-48h57v-13h-57v-60h-16v138h85v-17h-69zM370 317v121h-46v17h106v-17h-46v-121h-14z
M785 455v-123h62v-15h-79v138h17zM271 730q2 -3 3 -6t3 -5q1 -4 1 -10v-5q0 -2 -1 -5q-2 -2 -3 -5t-3 -4q-3 -4 -9 -7q-5 -1 -10 -1h-35v54h35q7 0 10 -2q3 0 5.5 -2t3.5 -2zM878 455v-123h64v-15h-79v138h15zM1325 390q5 0 6 4q3 1 5 2t5 1l2 4q1 2 3 4q0 2 1 5t1 8
q0 1 -1 2.5t-1 5.5q-2 2 -3 3.5t-2 4.5q-3 0 -5 1.5t-5 2.5h-42v-48h36zM2102 394q1 1 3 2t4 1q5 6 5 8q1 5 1 13q0 3 -1 8q0 2 -5 8q-2 0 -4 1.5t-3 2.5h-43v-48h34q5 0 9 4zM519 703q0 -1 -5 -8q-2 -1 -3 -2.5t-4 -2.5q-2 -2 -9 -2h-33v48h33q4 0 9 -2q3 0 4 -1.5t3 -2.5
q3 -5 5 -9q3 -2 3 -10q0 -6 -3 -8zM684 129l-27 68q0 1 -1 3t-1 3q0 4 -1 6v-6q0 -1 -1.5 -3t-1.5 -3l-28 -68h61zM1524 455v-138h-16v138h16zM1091 728q1 -2 1 -5l29 -64h-60l28 64q0 3 1 4v2zM1756 81q5 0 6 -6q1 -1 1 -5v-4q0 -6 -1 -9q-1 -5 -6 -9q-3 -1 -7 -4
q-1 -1 -3.5 -1.5t-5.5 -0.5q-2 0 -5 0.5t-4 1.5q-2 1 -4 2.5t-4 1.5q-1 2 -2.5 4t-4.5 5q-1 3 -1 9v4q0 4 1 5l4 4q2 2 3 2q5 6 8 6q1 3 4 3.5t5 0.5q3 0 5.5 -0.5t3.5 -3.5q4 0 7 -6z" />
    <glyph glyph-name="three" unicode="3" 
d="M2479 1091v-585h-2405v585h912q0 31 4.5 59.5t18.5 54.5q12 27 27 51t37 43q38 40 92 61q26 13 54 18t57 5q33 0 61.5 -6t53.5 -18q29 -13 52.5 -29t42.5 -35q36 -37 62 -94q19 -54 19 -110h912zM1030 1193q-21 -47 -21 -102q0 -56 21 -103q11 -24 25 -45.5t31 -41.5
q18 -18 39.5 -32.5t45.5 -24.5q48 -23 105 -23q30 0 55.5 5t48.5 15q25 11 45.5 25t39.5 33q19 18 33.5 39.5t25.5 44.5q23 53 23 108q0 24 -4.5 47.5t-13.5 44.5q-13 40 -42 75q-14 17 -30 30.5t-33 25.5l-38.5 19.5t-39.5 15.5q-15 5 -32.5 7.5t-37.5 2.5q-29 0 -55.5 -6
t-51.5 -18q-48 -18 -84 -57q-17 -18 -30.5 -40t-24.5 -45zM1141 935l315 319q30 -39 46 -80t16 -83q0 -22 -3.5 -43.5t-11.5 -41.5q-8 -18 -18 -35.5t-23 -35.5h-321zM1094 928q-27 35 -44 75q-8 19 -11 42t-3 46q0 22 3 42t11 40q5 20 15.5 37t23.5 34h321zM1134 207
q3 -5 5 -11t6 -14q2 -7 2 -14v-31q0 -7 -2 -13q-4 -7 -6 -14t-5 -13l-8.5 -11t-9.5 -11q-7 -5 -11.5 -9.5t-11.5 -7.5q-5 -6 -12 -8t-13 -5q-9 -1 -16.5 -2t-14.5 -1q-11 0 -21.5 2.5t-21.5 5.5q-12 5 -20 11t-16 14q-15 16 -23 35q-4 11 -6 21.5t-2 22.5q0 7 0.5 14t2.5 14
q4 16 12 25q4 8 8 13t8 11q6 5 11.5 9l12.5 9l11.5 5.5t15.5 5.5q5 1 12 2t16 1q7 0 14.5 -1t16.5 -2q6 -3 13 -5.5t12 -5.5q7 -5 11.5 -9t11.5 -9l9.5 -11t8.5 -13zM2195 207q3 -5 6 -11t5 -14q3 -7 3 -14v-31q0 -7 -3 -13q-2 -7 -5 -14t-6 -13q-6 -11 -16 -22l-13 -9.5
t-11 -7.5q-7 -6 -13.5 -8t-14.5 -5q-6 -1 -13 -2t-16 -1q-21 0 -43 8q-9 5 -17.5 11t-16.5 14q-7 7 -13.5 15.5t-9.5 19.5q-5 11 -7 21.5t-2 22.5q0 7 1 14t1 14q3 8 6.5 14l6.5 11q3 8 7 13t10 11q5 5 10.5 9l12.5 9q5 3 12 5.5t13 5.5q9 1 16 2t13 1q9 0 16 -1t13 -2
l14.5 -5.5t13.5 -5.5q5 -5 11 -9l13 -9q3 -6 8.5 -11t7.5 -13zM2433 260q1 0 2 1t6 1h38v-218h-38v159q-2 -1 -2.5 -3.5t-2.5 -6.5q-1 -3 -1 -5.5t-1 -5.5l-14.5 -34.5t-15.5 -33.5q-5 -17 -12 -34t-14 -36h-38l-55 138q-3 4 -3 11q-1 3 -3 4l-1 1v-154h-41v218h38
q6 0 7.5 -1t2.5 -1q3 -2 4 -2t3 -1l7 -5q1 -2 3 -4t2 -4q5 -16 12 -32l14 -33q6 -17 12.5 -33.5t13.5 -31.5v-11q2 0 3 -4q0 4 2 4v5q0 2 0.5 3.5t0.5 2.5l8 15l45 115q0 2 1 4l2 4q1 2 4 3t3 2q2 1 4 1t4 2zM1330 262h39v-218h-38l-101 147l-3 1l-1 2q-3 4 -3 7q-4 1 -4 4
q-1 1 -1.5 2t-2.5 2v-165h-40v218h36q4 0 7.5 -1t4.5 -3q4 -1 6 -2t4 -3l22 -32q11 -16 21 -34q14 -14 24.5 -29.5t24.5 -30.5q0 -3 1 -5.5t2 -6.5q0 -1 1 -3t1 -4v154zM672 262l94 -218h-24q-9 0 -17 4q-3 2 -4.5 6.5t-5.5 8.5l-12 28h-100l-11 -28q-1 -4 -2 -5t-3 -1
q-1 -5 -3 -6l-4 -3q-2 0 -3.5 -1.5t-4.5 -1.5q0 -1 -3 -1h-28l95 218h36zM260 262h139v-38h-99v-50h80v-40h-80v-53h99v-37h-139v218zM1966 659q1 7 1 11v22q0 6 -1 10q-3 9 -9 19q-4 6 -14 15q-2 3 -5.5 6t-7.5 8q-5 1 -10 3l-10 4q-5 1 -9 1.5t-11 0.5q-6 0 -11 -0.5
t-9 -1.5q-12 -4 -20 -7q-4 -5 -7.5 -8t-7.5 -6q-4 -4 -7 -7.5t-6 -7.5q-2 -6 -4.5 -10t-3.5 -9q-3 -10 -3 -23q0 -6 1.5 -14t5.5 -14q5 -16 17 -27q5 -5 11 -9t13 -5q13 -6 31 -6h11q4 0 9 1q5 2 10 3.5t10 4.5q4 4 7.5 6t5.5 5q10 7 14 17q6 9 9 18zM838 659q1 7 2 11t1 9
q0 13 -3 23q-1 5 -3.5 9t-4.5 10q-4 6 -13 15q-3 3 -7 6t-10 8q-3 1 -7 3t-10 4q-5 1 -10 1.5t-11 0.5q-5 0 -10 -0.5t-10 -1.5q-6 -2 -10.5 -4t-8.5 -3q-4 -5 -8 -8t-9 -6q-3 -4 -6 -7.5t-5 -7.5q-4 -6 -5 -10t-3 -9q-3 -10 -3 -23q0 -6 2 -14t4 -14q3 -8 7.5 -14.5
l8.5 -12.5q7 -5 13.5 -9t14.5 -5q12 -6 28 -6h11q5 0 10 1q11 4 17 8q13 6 17 11q6 7 13 17q2 5 4.5 9.5t3.5 8.5zM74 262h159v-24q0 -2 -2 -4q0 -5 -1.5 -6.5t-4.5 -3.5l-106 -145h2l1 2h109v-37h-165v13q0 8 1 11q0 2 6 8l1 4l2 4q2 2 3.5 4.5t2.5 5.5l95 130h-103v38z
M1839 203q-8 -9 -15 -24q-2 -5 -4 -11.5t-2 -13.5q0 -8 2 -14.5l4 -12.5q3 -9 6.5 -14.5t8.5 -9.5q4 -5 10 -8.5l13 -7.5q8 -3 14.5 -4.5t13.5 -1.5t11 1.5t9 1.5q5 2 10 5t10 7q4 1 7 2h13q4 0 7 -1q6 -2 9 -6l7 -10q-6 -8 -16 -15q-6 -3 -11 -6t-11 -6q-5 -4 -10.5 -5.5
t-11.5 -3.5t-11 -2.5t-12 -0.5q-13 0 -23.5 2.5t-20.5 5.5q-21 10 -35 25q-16 16 -24 35q-4 11 -6.5 21.5t-2.5 22.5q0 7 1 14t3 14q1 8 3.5 14t7.5 11q5 8 8.5 13t9.5 11q6 5 11.5 9l12.5 9q5 3 11 5.5t15 5.5q6 1 13.5 2t15.5 1h12q5 0 11 -3q6 -2 11.5 -3.5t10.5 -3.5
q6 -3 11 -6t11 -7q10 -9 16 -16l-7 -9q-3 -3 -5 -4.5t-4 -3.5h-14q-3 0 -6.5 0.5t-6.5 2.5q-5 4 -10 6.5t-10 5.5q-5 1 -9 1.5t-11 0.5q-16 0 -28 -6q-7 -3 -13 -6.5t-10 -8.5zM1690 149q3 -3 6 -7t4 -9q1 -4 3 -9t2 -12q0 -14 -7 -28l-8 -12q-4 -6 -9 -9l-11 -9t-13 -6
q-7 -3 -15 -4.5t-14 -1.5q-8 0 -15.5 1.5t-16.5 4.5q-7 2 -12 6.5l-12 10.5q-4 2 -6 6l-4 8q-5 2 -6 12h1q1 1 5 3l1 1q1 1 3 2h4l2 1h12q3 0 4 -1q7 0 10 -3q4 -3 8 -5.5t6 -4.5q2 0 6 -1.5t10 -1.5q2 0 5 0.5t8 2.5q6 2 11 7q6 3 9 7t4.5 7t1.5 7q0 7 -6 11q-4 6 -9 6
q-2 4 -5.5 5t-5.5 3q-7 1 -15 6q-6 1 -10.5 2t-10.5 4q-7 4 -11.5 7t-8.5 7q-5 3 -8.5 7.5t-4.5 8.5q-6 12 -6 24q0 18 6 26q2 7 6 11l9 9q4 3 9.5 5.5t13.5 5.5q5 1 11 2t13 1q4 0 8.5 -1t9.5 -2q6 -2 9 -3.5t8 -3.5q4 -3 7.5 -6t6.5 -7q2 -2 6 -5.5t5 -6.5l-8 -5
q-2 -1 -5 -3t-4 -5h-18q-7 2 -7 3q-3 1 -6 4q-2 0 -3 0.5t-2 0.5q-5 1 -7 1q-8 0 -12 -1q-3 0 -4 -1t-5 -3q-2 -1 -6 -7q-1 -3 -1 -9t1 -6q3 -3 4 -4.5t2 -5.5q4 0 6.5 -0.5t6.5 -1.5q4 -2 9.5 -4.5t8.5 -3.5l8 -2q6 -4 11 -6t11 -6q9 -3 16 -14zM1104 127q2 6 3 12.5
t1 14.5q0 12 -4 25q-3 10 -7.5 14.5t-10.5 9.5q-3 5 -8.5 8.5t-12.5 6.5q-12 6 -28 6t-28 -6l-10.5 -6.5t-10.5 -8.5q-7 -5 -10 -9.5t-6 -14.5q-5 -5 -5.5 -11.5t-0.5 -13.5q0 -8 0.5 -14.5t5.5 -12.5q3 -9 6 -14.5t10 -9.5q5 -5 10.5 -8.5t10.5 -7.5q6 -3 13 -4.5t15 -1.5
q7 0 14 1.5t14 4.5q7 4 12.5 7.5t8.5 8.5q6 4 10.5 9.5t7.5 14.5zM2283 336q-6 -5 -11.5 -9t-12.5 -7q-6 -2 -12 -2.5t-13 -0.5q-9 0 -16.5 0.5t-13.5 2.5q-13 4 -23 16q-4 4 -7.5 9.5l-7.5 11.5l-4 15.5t-2 14.5q0 3 1 7.5t2 8.5t2.5 9.5t4.5 8.5q3 5 6 8.5t5 6.5
q5 2 8.5 5.5t7.5 5.5q5 3 9.5 4.5t7.5 3.5q6 0 9.5 1.5t10.5 1.5q3 0 7.5 -1.5t10.5 -1.5l9 -3.5t7 -4.5q4 -2 8.5 -5.5t6.5 -5.5l4.5 -6.5t4.5 -8.5q6 -7 8 -18q2 -4 3 -8.5t1 -7.5q0 -7 -1 -14.5t-5 -15.5q-1 -6 -5.5 -11.5t-9.5 -9.5zM2164 127q6 12 6 27q0 7 -2 13.5
t-4 11.5q-2 10 -5.5 14.5t-8.5 9.5q-9 10 -24 15q-5 4 -12 5t-16 1q-14 0 -27 -6q-6 -3 -11.5 -6.5t-10.5 -8.5t-9 -9.5t-8 -14.5q-1 -5 -2 -11.5t-1 -13.5q0 -8 1 -14.5l2 -12.5q7 -16 17 -24q5 -5 10.5 -8.5l11.5 -7.5q7 -3 14.5 -4.5t12.5 -1.5q9 0 16 1.5t12 4.5
l13.5 7.5t10.5 8.5q10 9 14 24zM1579 336q-12 9 -17 21q-6 14 -6 30q0 3 0.5 7.5t0.5 8.5q6 11 9 18q5 8 13 15q6 8 12 11q5 3 9.5 4.5t9.5 3.5q4 0 8 1.5t10 1.5q5 0 10.5 -1.5t10.5 -1.5q3 -2 7.5 -3.5t8.5 -4.5q3 -2 6.5 -5.5t6.5 -5.5q4 -3 5.5 -6.5t6.5 -8.5
q3 -7 7 -18q1 -4 2 -8.5t1 -7.5q0 -7 -1.5 -14.5t-5.5 -15.5q-2 -6 -6 -11.5t-9 -9.5q-5 -5 -10.5 -9t-13.5 -7t-26 -3q-8 0 -15 0.5t-12 2.5q-15 4 -22 16zM775 262h139v-38h-100v-57h82v-38h-82v-85h-39v218zM572 224h-60v-180h-42v180h-64v38h166v-38zM1188 864
q-19 9 -37.5 20.5t-34.5 25.5h322q-16 -14 -34.5 -25.5t-38.5 -20.5q-21 -6 -43.5 -11.5t-45.5 -5.5q-24 0 -45 5.5zM1365 1315q20 -8 38.5 -20t33.5 -24h-323q35 30 74 44q39 18 88 18t89 -18zM1389 262h165v-38h-65v-180h-39v180h-61v38zM560 605l-48 66q3 1 6 1.5t6 3.5
q7 3 8 10q3 2 5.5 5.5t3.5 7.5v23q0 4 -2 8q-4 7 -10 13q-4 9 -15 9q-2 3 -7 4.5t-9 1.5h-55v-153h22v63h24l39 -55q2 -4 7 -6q2 -2 4 -2h21zM801 721q5 -3 9 -8.5t6 -9.5q1 -5 2.5 -11t1.5 -13q0 -5 -1.5 -10.5t-2.5 -11.5q-2 -4 -6 -8.5t-9 -7.5q-2 -4 -6.5 -7t-9.5 -7
q-4 -2 -10.5 -3t-12.5 -1q-11 0 -23 4q-4 4 -8.5 7t-9.5 7q-2 3 -6 7.5t-6 8.5q-3 6 -4 11.5t-1 10.5q0 12 5 24q2 4 6 9.5t6 8.5q5 5 9.5 7.5t8.5 5.5q7 2 12.5 3t10.5 1q12 0 23 -4l9.5 -5.5t6.5 -7.5zM1169 605l-67 153h-21l-68 -153h13q8 0 10 2q1 2 2 3t4 3l10 26h79
l9 -26q3 -4 7 -6q1 -2 9 -2h13zM1931 721q3 -3 6.5 -8.5t5.5 -9.5q2 -5 3 -11t1 -13q0 -11 -4 -22q-2 -4 -5.5 -8.5t-6.5 -7.5q-5 -4 -9.5 -7t-8.5 -7q-11 -4 -23 -4q-6 0 -12 1t-10 3q-6 4 -10 7t-8 7q-4 3 -7 7.5t-4 8.5q-3 6 -4.5 11.5t-1.5 10.5q0 12 6 24q1 4 4 9.5
t7 8.5q4 5 8 7.5t10 5.5q9 4 22 4q7 0 11.5 -1t11.5 -3q4 -3 8.5 -5.5t9.5 -7.5zM295 690q7 12 7 19q0 5 -1.5 9.5t-5.5 11.5q0 2 -4 5l-6 7q-2 4 -5.5 7t-8.5 3q-3 3 -8.5 4.5t-10.5 1.5h-54v-153h19v57h35q5 0 10.5 0.5t8.5 3.5q10 4 14 9q3 3 6.5 7t3.5 8zM2126 758h-21
v-119q-2 2 -2.5 5t-2.5 5l-74 103l-5 5q-1 0 -4 0.5t-5 0.5h-16v-153h23v125h1v-4l1 -3l88 -118h17v153zM1579 407q-4 -5 -5.5 -11t-1.5 -9q0 -4 0.5 -8t1.5 -7q1 -7 7 -15q1 -2 3 -4.5t4 -5.5l5 -5q3 -3 8 -3q3 -3 6.5 -4.5t5.5 -2.5q4 -1 8 -1h14q6 0 8 1q3 1 6 2.5t8 4.5
q2 0 5 3l5 5q2 3 5 5.5t4 4.5q2 4 3 7.5t2 7.5q1 3 1.5 7t0.5 8q0 3 -1 9t-4 11q-1 6 -4.5 10t-6.5 9q-3 3 -8 6l-10 6q-4 0 -9.5 0.5t-11.5 0.5q-7 0 -11.5 -0.5t-10.5 -0.5q-4 -3 -9.5 -6t-8.5 -6l-5.5 -9t-3.5 -10zM2225 331h15q4 0 9 1q3 1 5.5 2.5t4.5 4.5q3 0 6.5 3
t7.5 5q2 3 3.5 5.5t4.5 4.5q1 4 2.5 7.5t1.5 7.5q1 3 1 7v8q0 3 -0.5 9t-0.5 11q-2 6 -6 10t-6 9q-6 3 -10.5 6t-8.5 6q-4 0 -10 0.5t-10 0.5q-7 0 -12 -0.5t-11 -0.5q-6 -3 -10 -6t-7 -6q-5 -5 -8 -9t-5 -10q-2 -5 -2 -11v-24q1 -4 2 -7.5t5 -7.5q1 -2 3 -4.5t5 -5.5l5 -5
q3 -3 5 -3q3 -3 6 -4.5t8 -2.5q3 -1 7 -1zM997 758h-19v-118l-2 4q-1 3 -1 5l-74 103q-4 0 -7 5q-2 0 -5 0.5t-5 0.5h-14v-153h21v125l2 -1l1 -2v-4l88 -118h15v153zM2114 381q-7 -2 -12 -4l44 -60h-11q-4 0 -8 2q-1 1 -2 1.5t-2 4.5l-39 52h-25v-60h-17v138h51
q3 0 6.5 -0.5t9.5 -2.5q3 -1 6 -3t4 -4q4 -3 5.5 -6.5t6.5 -7.5q0 -3 0.5 -7.5t0.5 -5.5q0 -5 -0.5 -8.5t-0.5 -6.5q-3 -4 -4.5 -8t-2.5 -5zM1343 381q-2 -2 -12 -4l47 -60h-9q-3 0 -6 0.5t-3 1.5q-2 1 -4 1.5t-3 4.5l-39 52h-25v-60h-15v138h51q3 0 6 -0.5t7 -2.5
q7 -2 15 -7q1 -3 3.5 -6.5t3.5 -7.5q2 -3 2 -8v-14q0 -3 -2 -6q0 -4 -1.5 -8t-3.5 -5l-5 -5q-2 -2 -7 -4zM2460 452q3 2 4 2.5t3 0.5h12v-138h-14v114q0 -1 -2 -3v-2q-4 -8 -7 -17t-7 -14l-5.5 -14.5t-7.5 -13.5q-2 -8 -4 -14t-5 -12l-7 -12.5t-5 -11.5h-15
q-9 12 -14.5 25.5l-11.5 27.5q-5 14 -11.5 28t-11.5 28v2q-3 0 -3 1v-112h-16v138h14q5 0 7 -3q2 -1 2.5 -1.5t0.5 -3.5l48 -108q0 -3 3 -3v-1l1 2q1 2 1 4q0 4 5 8l41 98q2 3 3 3.5t2 1.5zM411 758h-95v-153h95v19h-73v47h60v20h-60v45h73v22zM1723 758h-94v-153h94v19h-73
v47h60v20h-60v45h73v22zM1479 758h-20v-103q0 -3 -3 -8q-1 -7 -10 -12q-1 -2 -4.5 -4.5t-5.5 -5.5l-9 -2h-7q-11 0 -15 2q-6 3 -9.5 5.5t-4.5 4.5q-2 2 -4 5t-7 7q0 5 -1 8.5t-1 10.5v92h-20v-92q0 -7 0.5 -11t1.5 -8q0 -7 5 -14q5 -9 11 -13q2 -2 5.5 -5t7.5 -5
q2 -1 5.5 -2t7.5 -3q5 -1 8.5 -2t9.5 -1q4 0 7 1t10 2q3 2 6 3t7 2q7 5 12 10q5 3 6.5 5.5t3.5 7.5q1 3 3.5 6.5t3.5 7.5v111zM663 631q2 5 3 8.5t1 9.5q0 11 -4.5 19t-11.5 14q-2 1 -3.5 2.5t-5.5 3.5l-6 2q-1 1 -3.5 1t-2.5 3q-5 0 -7 3q-6 1 -8.5 2t-6.5 3q-6 2 -7 3
q-6 4 -6 6v16q1 2 3.5 3.5t2.5 3.5q1 0 3.5 1t3.5 1q4 1 6.5 1.5t5.5 0.5l2 -1q2 -1 4 -1q7 0 8 -5q2 -1 4 -1h4q9 0 13 4l5 2q-1 2 -3 3l-3 4q-3 3 -5.5 5t-6.5 4q-2 0 -4.5 1.5t-7.5 3.5q-4 1 -5.5 1.5t-4.5 0.5q-5 0 -10 -0.5t-8 -1.5q-6 -2 -8.5 -4t-6.5 -3
q-2 -4 -6 -7.5t-5 -6.5q-1 -4 -2.5 -7.5t-1.5 -9.5q0 -5 0.5 -9t3.5 -7q1 -4 4 -7.5t5 -5.5l7 -4.5t9 -3.5q3 -3 6 -4.5t7 -2.5q3 -2 6.5 -2t5.5 -1l6 -2q2 0 4 -2q3 -2 3.5 -3.5t2.5 -5.5q2 -2 2 -5v-10q0 -3 -2 -5q-2 -3 -2.5 -4.5t-3.5 -3.5q-2 -4 -5.5 -5t-4.5 -2
q-3 0 -6 -0.5t-6 -0.5q-4 0 -6.5 0.5t-4.5 0.5q-2 1 -5 2t-3 5l-3 2q-5 4 -12 4h-4q-1 0 -4 -2l-7 -2q0 -5 4 -5q0 -2 3 -4q0 -3 3 -4q0 -1 1 -3h2q8 -8 17 -10.5t19 -2.5q5 0 9.5 0.5t10.5 2.5q4 1 9.5 3t7.5 7q4 2 7.5 5t4.5 9zM1598 631q6 9 6 18q0 11 -4 19t-13 14
q-5 4 -6 6q-2 0 -4.5 0.5t-4.5 1.5q0 1 -3 1t-5 3h-3q-2 1 -4 3q-3 1 -5 2t-5 3q-8 2 -9 3q-4 2 -5 3.5t-2 2.5q0 2 -1 3.5t-1 4.5q0 4 4 8q1 3 5 7q2 0 3 1t6 1q1 2 9 2q1 0 3.5 -1t4.5 -1q2 -2 8 -5q7 -1 9 -1q6 0 9 4l6 2q-1 2 -3.5 3.5t-4.5 3.5q-1 3 -3.5 5t-5.5 4
q-4 0 -6 1.5t-6 3.5q-3 1 -6.5 1.5t-4.5 0.5q-5 0 -9.5 -0.5t-8.5 -1.5l-14 -7q-4 -4 -6 -7.5t-5 -6.5q-2 -4 -3.5 -7.5t-1.5 -9.5q0 -5 1.5 -9t3.5 -7q4 -8 9 -13l6.5 -4.5t6.5 -3.5q5 -3 9 -4.5t7 -2.5q4 -2 5.5 -2t5.5 -1q2 -1 5 -1.5t5 -2.5t4.5 -3.5t2.5 -5.5
q2 -2 2.5 -4.5t0.5 -5.5q0 -2 -0.5 -5t-2.5 -5q-1 -6 -7 -8q-5 -4 -6.5 -5t-3.5 -2q-5 0 -6.5 -0.5t-4.5 -0.5t-6.5 0.5t-5.5 0.5q-5 2 -10 7l-2 2q-5 4 -10 4h-5q-3 0 -4 -2l-6 -2q1 -2 1 -3.5t3 -1.5q0 -1 0.5 -2t0.5 -2l2 -2q1 -1 1 -2q5 -3 7 -3q6 -8 15 -10.5t19 -2.5
q5 0 10 0.5t11 2.5q3 1 7 3t9 7l5 5q3 3 5 9zM1741 317h-16v138h13q2 0 4.5 -0.5t4.5 -3.5l73 -102q2 -1 2 -4l2 -3v113h15v-138h-13l-82 114v3h-3v-117zM78 351q-4 4 -5.5 8t-2.5 8q-3 6 -3.5 10t-0.5 10q0 7 4 16q1 4 2.5 9.5t5.5 8.5l3.5 8.5t7.5 6.5q1 2 5 5.5t7 5.5
q6 3 9.5 4.5t7.5 3.5q4 0 9.5 1.5t11.5 1.5q7 0 13.5 -2t13.5 -5q8 -2 13.5 -5.5t9.5 -9.5q-2 -2 -4 -2v-3h-3q0 -1 -2 -1h-3q-6 0 -7 1q-4 2 -7.5 4.5t-7.5 2.5q-5 1 -8 1h-8q-6 0 -11.5 -0.5t-9.5 -0.5q-6 -3 -11 -6t-9 -6q-4 -5 -6.5 -9t-4.5 -10q-4 -5 -4.5 -11t-0.5 -9
q0 -8 3 -15q1 -4 2.5 -7.5t1.5 -7.5l4 -5q3 -2 5 -5q4 -2 7 -5t7 -3q2 -3 5.5 -4.5t7.5 -2.5q3 -1 6 -1h16q4 0 10 1q3 1 8.5 2.5t8.5 4.5v29h-14l-1 2q-2 1 -3 2t-3 2l-2 1q-1 2 -1 4l-1 1v4h40v-53q-3 -5 -5 -6t-6 -5q-5 -1 -12 -1q-6 -2 -13 -2h-35q-4 1 -7.5 2.5
t-9.5 5.5q-3 1 -7 4t-5 7q-6 3 -7.5 7t-3.5 8zM2374 758h-18q-5 0 -9 -4q-7 -4 -7 -8l-36 -47l-2 -1q0 -1 -2 -1l-1 2l-37 47q-3 5 -6 8q-4 4 -11 4h-17l57 -76l1 -3q0 -1 2 -1l1 -2v-2l1 -1v-68h23v68q1 0 1 3q1 0 2 3v3h1zM240 438v-43h55v-16h-55v-47h68v-15h-85v138h85
v-17h-68zM1171 438v-43h59v-16h-59v-47h68v-15h-83v138h83v-17h-68zM642 455v-85q0 -5 2 -8.5t5 -5.5q1 -6 3.5 -8.5t4.5 -6.5q1 -2 4.5 -4t5.5 -4q5 -2 9 -2h16q3 0 6 2q5 2 8 4t7 4q1 4 3.5 6.5t4.5 8.5q4 5 4 14v85h14v-85q0 -6 -1 -10.5t-3 -10.5q-1 -7 -4.5 -11
t-7.5 -7q-3 -5 -7.5 -8t-9.5 -4q-11 -2 -22 -2t-24 2q-3 1 -7 4t-9 8q-6 6 -11 18q-2 6 -4 10.5t-2 10.5v85h15zM2252 624h-66v134h-23v-153h89v19zM1270 624h-66v134h-21v-153h87v19zM1453 336q2 3 4 9q2 2 2.5 5.5t0.5 5.5q0 8 -1 11q-2 1 -3 3.5t-3 3.5q-3 3 -9 5
q-4 0 -6 1.5t-7 2.5q-3 1 -6.5 3t-4.5 3q-11 1 -15 8q-3 0 -5 3t-4 5v15q0 6 0.5 9.5t1.5 6.5q1 8 9 11l7 4q3 2 8 4q3 0 5.5 1.5t8.5 1.5q2 0 5.5 -1.5t4.5 -1.5q3 0 5 -1.5t5 -2.5t4.5 -2.5t1.5 -3.5q6 -1 7 -3.5t2 -3.5l-3 -2q-3 -2 -9 -2h-6q-4 3 -4 4h-9l-1 1h-3
q-7 0 -9 -1q-7 0 -7 -2q-7 -5 -7 -8q-3 0 -3 -8q0 -5 3 -6q0 -4 4 -7q1 -1 3.5 -2.5t3.5 -1.5q4 -3 6.5 -3.5t7.5 -2.5q1 0 3.5 -0.5t2.5 -1.5q2 0 4 -0.5t5 -4.5h2v-1h2q2 0 3 -1l2 -1q6 -4 8 -7t5 -6q2 -9 2 -18q0 -6 -0.5 -10t-4.5 -7q-1 -7 -10 -13q-2 -3 -6 -4.5
t-7 -2.5q-4 -2 -9 -2h-11q-8 0 -16 1.5t-15 7.5q-1 0 -2.5 2.5t-4.5 4.5q0 2 -1 4l-1 2l3 3q1 1 4 1h2q3 0 5 -1.5t5 -2.5q4 -3 6.5 -4.5t5.5 -2.5q1 -1 4 -1h5q9 0 11 1q7 0 13 4zM1070 317l-61 138h6q6 0 10 -3q1 -1 2 -1.5t3 -3.5l44 -104v-4q1 -3 2 -5v6q1 2 1 3
l13.5 26t11.5 26q4 15 10 27.5l12 24.5q1 3 3 3.5t2 1.5q3 2 4 2.5t4 0.5h8l-15.5 -34.5t-15.5 -33.5l-15 -36l-14 -34h-15zM532 438v-48h60v-13h-60v-60h-16v138h86v-17h-70zM1957 438v-48h57v-13h-57v-60h-16v138h85v-17h-69zM370 317v121h-46v17h106v-17h-46v-121h-14z
M785 455v-123h62v-15h-79v138h17zM271 730q2 -3 3 -6t3 -5q1 -4 1 -10v-5q0 -2 -1 -5q-2 -2 -3 -5t-3 -4q-3 -4 -9 -7q-5 -1 -10 -1h-35v54h35q7 0 10 -2q3 0 5.5 -2t3.5 -2zM878 455v-123h64v-15h-79v138h15zM1325 390q5 0 6 4q3 1 5 2t5 1l2 4q1 2 3 4q0 2 1 5t1 8
q0 1 -1 2.5t-1 5.5q-2 2 -3 3.5t-2 4.5q-3 0 -5 1.5t-5 2.5h-42v-48h36zM2102 394q1 1 3 2t4 1q5 6 5 8q1 5 1 13q0 3 -1 8q0 2 -5 8q-2 0 -4 1.5t-3 2.5h-43v-48h34q5 0 9 4zM519 703q0 -1 -5 -8q-2 -1 -3 -2.5t-4 -2.5q-2 -2 -9 -2h-33v48h33q4 0 9 -2q3 0 4 -1.5t3 -2.5
q3 -5 5 -9q3 -2 3 -10q0 -6 -3 -8zM684 129l-27 68q0 1 -1 3t-1 3q0 4 -1 6v-6q0 -1 -1.5 -3t-1.5 -3l-28 -68h61zM1524 455v-138h-16v138h16zM1091 728q1 -2 1 -5l29 -64h-60l28 64q0 3 1 4v2zM1756 81q5 0 6 -6q1 -1 1 -5v-4q0 -6 -1 -9q-1 -5 -6 -9q-3 -1 -7 -4
q-1 -1 -3.5 -1.5t-5.5 -0.5q-2 0 -5 0.5t-4 1.5q-2 1 -4 2.5t-4 1.5q-1 2 -2.5 4t-4.5 5q-1 3 -1 9v4q0 4 1 5l4 4q2 2 3 2q5 6 8 6q1 3 4 3.5t5 0.5q3 0 5.5 -0.5t3.5 -3.5q4 0 7 -6z" />
    <glyph glyph-name="four" unicode="4" 
d="M2479 1091v-585h-2405v585h912q0 31 4.5 59.5t18.5 54.5q12 27 27 51t37 43q38 40 92 61q26 13 54 18t57 5q33 0 61.5 -6t53.5 -18q29 -13 52.5 -29t42.5 -35q36 -37 62 -94q19 -54 19 -110h912zM1030 1193q-21 -47 -21 -102q0 -56 21 -103q11 -24 25 -45.5t31 -41.5
q18 -18 39.5 -32.5t45.5 -24.5q48 -23 105 -23q30 0 55.5 5t48.5 15q25 11 45.5 25t39.5 33q19 18 33.5 39.5t25.5 44.5q23 53 23 108q0 24 -4.5 47.5t-13.5 44.5q-13 40 -42 75q-14 17 -30 30.5t-33 25.5l-38.5 19.5t-39.5 15.5q-15 5 -32.5 7.5t-37.5 2.5q-29 0 -55.5 -6
t-51.5 -18q-48 -18 -84 -57q-17 -18 -30.5 -40t-24.5 -45zM1141 935l315 319q30 -39 46 -80t16 -83q0 -22 -3.5 -43.5t-11.5 -41.5q-8 -18 -18 -35.5t-23 -35.5h-321zM1094 928q-27 35 -44 75q-8 19 -11 42t-3 46q0 22 3 42t11 40q5 20 15.5 37t23.5 34h321zM1134 207
q3 -5 5 -11t6 -14q2 -7 2 -14v-31q0 -7 -2 -13q-4 -7 -6 -14t-5 -13l-8.5 -11t-9.5 -11q-7 -5 -11.5 -9.5t-11.5 -7.5q-5 -6 -12 -8t-13 -5q-9 -1 -16.5 -2t-14.5 -1q-11 0 -21.5 2.5t-21.5 5.5q-12 5 -20 11t-16 14q-15 16 -23 35q-4 11 -6 21.5t-2 22.5q0 7 0.5 14t2.5 14
q4 16 12 25q4 8 8 13t8 11q6 5 11.5 9l12.5 9l11.5 5.5t15.5 5.5q5 1 12 2t16 1q7 0 14.5 -1t16.5 -2q6 -3 13 -5.5t12 -5.5q7 -5 11.5 -9t11.5 -9l9.5 -11t8.5 -13zM2195 207q3 -5 6 -11t5 -14q3 -7 3 -14v-31q0 -7 -3 -13q-2 -7 -5 -14t-6 -13q-6 -11 -16 -22l-13 -9.5
t-11 -7.5q-7 -6 -13.5 -8t-14.5 -5q-6 -1 -13 -2t-16 -1q-21 0 -43 8q-9 5 -17.5 11t-16.5 14q-7 7 -13.5 15.5t-9.5 19.5q-5 11 -7 21.5t-2 22.5q0 7 1 14t1 14q3 8 6.5 14l6.5 11q3 8 7 13t10 11q5 5 10.5 9l12.5 9q5 3 12 5.5t13 5.5q9 1 16 2t13 1q9 0 16 -1t13 -2
l14.5 -5.5t13.5 -5.5q5 -5 11 -9l13 -9q3 -6 8.5 -11t7.5 -13zM2433 260q1 0 2 1t6 1h38v-218h-38v159q-2 -1 -2.5 -3.5t-2.5 -6.5q-1 -3 -1 -5.5t-1 -5.5l-14.5 -34.5t-15.5 -33.5q-5 -17 -12 -34t-14 -36h-38l-55 138q-3 4 -3 11q-1 3 -3 4l-1 1v-154h-41v218h38
q6 0 7.5 -1t2.5 -1q3 -2 4 -2t3 -1l7 -5q1 -2 3 -4t2 -4q5 -16 12 -32l14 -33q6 -17 12.5 -33.5t13.5 -31.5v-11q2 0 3 -4q0 4 2 4v5q0 2 0.5 3.5t0.5 2.5l8 15l45 115q0 2 1 4l2 4q1 2 4 3t3 2q2 1 4 1t4 2zM1330 262h39v-218h-38l-101 147l-3 1l-1 2q-3 4 -3 7q-4 1 -4 4
q-1 1 -1.5 2t-2.5 2v-165h-40v218h36q4 0 7.5 -1t4.5 -3q4 -1 6 -2t4 -3l22 -32q11 -16 21 -34q14 -14 24.5 -29.5t24.5 -30.5q0 -3 1 -5.5t2 -6.5q0 -1 1 -3t1 -4v154zM672 262l94 -218h-24q-9 0 -17 4q-3 2 -4.5 6.5t-5.5 8.5l-12 28h-100l-11 -28q-1 -4 -2 -5t-3 -1
q-1 -5 -3 -6l-4 -3q-2 0 -3.5 -1.5t-4.5 -1.5q0 -1 -3 -1h-28l95 218h36zM260 262h139v-38h-99v-50h80v-40h-80v-53h99v-37h-139v218zM1966 659q1 7 1 11v22q0 6 -1 10q-3 9 -9 19q-4 6 -14 15q-2 3 -5.5 6t-7.5 8q-5 1 -10 3l-10 4q-5 1 -9 1.5t-11 0.5q-6 0 -11 -0.5
t-9 -1.5q-12 -4 -20 -7q-4 -5 -7.5 -8t-7.5 -6q-4 -4 -7 -7.5t-6 -7.5q-2 -6 -4.5 -10t-3.5 -9q-3 -10 -3 -23q0 -6 1.5 -14t5.5 -14q5 -16 17 -27q5 -5 11 -9t13 -5q13 -6 31 -6h11q4 0 9 1q5 2 10 3.5t10 4.5q4 4 7.5 6t5.5 5q10 7 14 17q6 9 9 18zM838 659q1 7 2 11t1 9
q0 13 -3 23q-1 5 -3.5 9t-4.5 10q-4 6 -13 15q-3 3 -7 6t-10 8q-3 1 -7 3t-10 4q-5 1 -10 1.5t-11 0.5q-5 0 -10 -0.5t-10 -1.5q-6 -2 -10.5 -4t-8.5 -3q-4 -5 -8 -8t-9 -6q-3 -4 -6 -7.5t-5 -7.5q-4 -6 -5 -10t-3 -9q-3 -10 -3 -23q0 -6 2 -14t4 -14q3 -8 7.5 -14.5
l8.5 -12.5q7 -5 13.5 -9t14.5 -5q12 -6 28 -6h11q5 0 10 1q11 4 17 8q13 6 17 11q6 7 13 17q2 5 4.5 9.5t3.5 8.5zM74 262h159v-24q0 -2 -2 -4q0 -5 -1.5 -6.5t-4.5 -3.5l-106 -145h2l1 2h109v-37h-165v13q0 8 1 11q0 2 6 8l1 4l2 4q2 2 3.5 4.5t2.5 5.5l95 130h-103v38z
M1839 203q-8 -9 -15 -24q-2 -5 -4 -11.5t-2 -13.5q0 -8 2 -14.5l4 -12.5q3 -9 6.5 -14.5t8.5 -9.5q4 -5 10 -8.5l13 -7.5q8 -3 14.5 -4.5t13.5 -1.5t11 1.5t9 1.5q5 2 10 5t10 7q4 1 7 2h13q4 0 7 -1q6 -2 9 -6l7 -10q-6 -8 -16 -15q-6 -3 -11 -6t-11 -6q-5 -4 -10.5 -5.5
t-11.5 -3.5t-11 -2.5t-12 -0.5q-13 0 -23.5 2.5t-20.5 5.5q-21 10 -35 25q-16 16 -24 35q-4 11 -6.5 21.5t-2.5 22.5q0 7 1 14t3 14q1 8 3.5 14t7.5 11q5 8 8.5 13t9.5 11q6 5 11.5 9l12.5 9q5 3 11 5.5t15 5.5q6 1 13.5 2t15.5 1h12q5 0 11 -3q6 -2 11.5 -3.5t10.5 -3.5
q6 -3 11 -6t11 -7q10 -9 16 -16l-7 -9q-3 -3 -5 -4.5t-4 -3.5h-14q-3 0 -6.5 0.5t-6.5 2.5q-5 4 -10 6.5t-10 5.5q-5 1 -9 1.5t-11 0.5q-16 0 -28 -6q-7 -3 -13 -6.5t-10 -8.5zM1690 149q3 -3 6 -7t4 -9q1 -4 3 -9t2 -12q0 -14 -7 -28l-8 -12q-4 -6 -9 -9l-11 -9t-13 -6
q-7 -3 -15 -4.5t-14 -1.5q-8 0 -15.5 1.5t-16.5 4.5q-7 2 -12 6.5l-12 10.5q-4 2 -6 6l-4 8q-5 2 -6 12h1q1 1 5 3l1 1q1 1 3 2h4l2 1h12q3 0 4 -1q7 0 10 -3q4 -3 8 -5.5t6 -4.5q2 0 6 -1.5t10 -1.5q2 0 5 0.5t8 2.5q6 2 11 7q6 3 9 7t4.5 7t1.5 7q0 7 -6 11q-4 6 -9 6
q-2 4 -5.5 5t-5.5 3q-7 1 -15 6q-6 1 -10.5 2t-10.5 4q-7 4 -11.5 7t-8.5 7q-5 3 -8.5 7.5t-4.5 8.5q-6 12 -6 24q0 18 6 26q2 7 6 11l9 9q4 3 9.5 5.5t13.5 5.5q5 1 11 2t13 1q4 0 8.5 -1t9.5 -2q6 -2 9 -3.5t8 -3.5q4 -3 7.5 -6t6.5 -7q2 -2 6 -5.5t5 -6.5l-8 -5
q-2 -1 -5 -3t-4 -5h-18q-7 2 -7 3q-3 1 -6 4q-2 0 -3 0.5t-2 0.5q-5 1 -7 1q-8 0 -12 -1q-3 0 -4 -1t-5 -3q-2 -1 -6 -7q-1 -3 -1 -9t1 -6q3 -3 4 -4.5t2 -5.5q4 0 6.5 -0.5t6.5 -1.5q4 -2 9.5 -4.5t8.5 -3.5l8 -2q6 -4 11 -6t11 -6q9 -3 16 -14zM1104 127q2 6 3 12.5
t1 14.5q0 12 -4 25q-3 10 -7.5 14.5t-10.5 9.5q-3 5 -8.5 8.5t-12.5 6.5q-12 6 -28 6t-28 -6l-10.5 -6.5t-10.5 -8.5q-7 -5 -10 -9.5t-6 -14.5q-5 -5 -5.5 -11.5t-0.5 -13.5q0 -8 0.5 -14.5t5.5 -12.5q3 -9 6 -14.5t10 -9.5q5 -5 10.5 -8.5t10.5 -7.5q6 -3 13 -4.5t15 -1.5
q7 0 14 1.5t14 4.5q7 4 12.5 7.5t8.5 8.5q6 4 10.5 9.5t7.5 14.5zM2283 336q-6 -5 -11.5 -9t-12.5 -7q-6 -2 -12 -2.5t-13 -0.5q-9 0 -16.5 0.5t-13.5 2.5q-13 4 -23 16q-4 4 -7.5 9.5l-7.5 11.5l-4 15.5t-2 14.5q0 3 1 7.5t2 8.5t2.5 9.5t4.5 8.5q3 5 6 8.5t5 6.5
q5 2 8.5 5.5t7.5 5.5q5 3 9.5 4.5t7.5 3.5q6 0 9.5 1.5t10.5 1.5q3 0 7.5 -1.5t10.5 -1.5l9 -3.5t7 -4.5q4 -2 8.5 -5.5t6.5 -5.5l4.5 -6.5t4.5 -8.5q6 -7 8 -18q2 -4 3 -8.5t1 -7.5q0 -7 -1 -14.5t-5 -15.5q-1 -6 -5.5 -11.5t-9.5 -9.5zM2164 127q6 12 6 27q0 7 -2 13.5
t-4 11.5q-2 10 -5.5 14.5t-8.5 9.5q-9 10 -24 15q-5 4 -12 5t-16 1q-14 0 -27 -6q-6 -3 -11.5 -6.5t-10.5 -8.5t-9 -9.5t-8 -14.5q-1 -5 -2 -11.5t-1 -13.5q0 -8 1 -14.5l2 -12.5q7 -16 17 -24q5 -5 10.5 -8.5l11.5 -7.5q7 -3 14.5 -4.5t12.5 -1.5q9 0 16 1.5t12 4.5
l13.5 7.5t10.5 8.5q10 9 14 24zM1579 336q-12 9 -17 21q-6 14 -6 30q0 3 0.5 7.5t0.5 8.5q6 11 9 18q5 8 13 15q6 8 12 11q5 3 9.5 4.5t9.5 3.5q4 0 8 1.5t10 1.5q5 0 10.5 -1.5t10.5 -1.5q3 -2 7.5 -3.5t8.5 -4.5q3 -2 6.5 -5.5t6.5 -5.5q4 -3 5.5 -6.5t6.5 -8.5
q3 -7 7 -18q1 -4 2 -8.5t1 -7.5q0 -7 -1.5 -14.5t-5.5 -15.5q-2 -6 -6 -11.5t-9 -9.5q-5 -5 -10.5 -9t-13.5 -7t-26 -3q-8 0 -15 0.5t-12 2.5q-15 4 -22 16zM775 262h139v-38h-100v-57h82v-38h-82v-85h-39v218zM572 224h-60v-180h-42v180h-64v38h166v-38zM1188 864
q-19 9 -37.5 20.5t-34.5 25.5h322q-16 -14 -34.5 -25.5t-38.5 -20.5q-21 -6 -43.5 -11.5t-45.5 -5.5q-24 0 -45 5.5zM1365 1315q20 -8 38.5 -20t33.5 -24h-323q35 30 74 44q39 18 88 18t89 -18zM1389 262h165v-38h-65v-180h-39v180h-61v38zM560 605l-48 66q3 1 6 1.5t6 3.5
q7 3 8 10q3 2 5.5 5.5t3.5 7.5v23q0 4 -2 8q-4 7 -10 13q-4 9 -15 9q-2 3 -7 4.5t-9 1.5h-55v-153h22v63h24l39 -55q2 -4 7 -6q2 -2 4 -2h21zM801 721q5 -3 9 -8.5t6 -9.5q1 -5 2.5 -11t1.5 -13q0 -5 -1.5 -10.5t-2.5 -11.5q-2 -4 -6 -8.5t-9 -7.5q-2 -4 -6.5 -7t-9.5 -7
q-4 -2 -10.5 -3t-12.5 -1q-11 0 -23 4q-4 4 -8.5 7t-9.5 7q-2 3 -6 7.5t-6 8.5q-3 6 -4 11.5t-1 10.5q0 12 5 24q2 4 6 9.5t6 8.5q5 5 9.5 7.5t8.5 5.5q7 2 12.5 3t10.5 1q12 0 23 -4l9.5 -5.5t6.5 -7.5zM1169 605l-67 153h-21l-68 -153h13q8 0 10 2q1 2 2 3t4 3l10 26h79
l9 -26q3 -4 7 -6q1 -2 9 -2h13zM1931 721q3 -3 6.5 -8.5t5.5 -9.5q2 -5 3 -11t1 -13q0 -11 -4 -22q-2 -4 -5.5 -8.5t-6.5 -7.5q-5 -4 -9.5 -7t-8.5 -7q-11 -4 -23 -4q-6 0 -12 1t-10 3q-6 4 -10 7t-8 7q-4 3 -7 7.5t-4 8.5q-3 6 -4.5 11.5t-1.5 10.5q0 12 6 24q1 4 4 9.5
t7 8.5q4 5 8 7.5t10 5.5q9 4 22 4q7 0 11.5 -1t11.5 -3q4 -3 8.5 -5.5t9.5 -7.5zM295 690q7 12 7 19q0 5 -1.5 9.5t-5.5 11.5q0 2 -4 5l-6 7q-2 4 -5.5 7t-8.5 3q-3 3 -8.5 4.5t-10.5 1.5h-54v-153h19v57h35q5 0 10.5 0.5t8.5 3.5q10 4 14 9q3 3 6.5 7t3.5 8zM2126 758h-21
v-119q-2 2 -2.5 5t-2.5 5l-74 103l-5 5q-1 0 -4 0.5t-5 0.5h-16v-153h23v125h1v-4l1 -3l88 -118h17v153zM1579 407q-4 -5 -5.5 -11t-1.5 -9q0 -4 0.5 -8t1.5 -7q1 -7 7 -15q1 -2 3 -4.5t4 -5.5l5 -5q3 -3 8 -3q3 -3 6.5 -4.5t5.5 -2.5q4 -1 8 -1h14q6 0 8 1q3 1 6 2.5t8 4.5
q2 0 5 3l5 5q2 3 5 5.5t4 4.5q2 4 3 7.5t2 7.5q1 3 1.5 7t0.5 8q0 3 -1 9t-4 11q-1 6 -4.5 10t-6.5 9q-3 3 -8 6l-10 6q-4 0 -9.5 0.5t-11.5 0.5q-7 0 -11.5 -0.5t-10.5 -0.5q-4 -3 -9.5 -6t-8.5 -6l-5.5 -9t-3.5 -10zM2225 331h15q4 0 9 1q3 1 5.5 2.5t4.5 4.5q3 0 6.5 3
t7.5 5q2 3 3.5 5.5t4.5 4.5q1 4 2.5 7.5t1.5 7.5q1 3 1 7v8q0 3 -0.5 9t-0.5 11q-2 6 -6 10t-6 9q-6 3 -10.5 6t-8.5 6q-4 0 -10 0.5t-10 0.5q-7 0 -12 -0.5t-11 -0.5q-6 -3 -10 -6t-7 -6q-5 -5 -8 -9t-5 -10q-2 -5 -2 -11v-24q1 -4 2 -7.5t5 -7.5q1 -2 3 -4.5t5 -5.5l5 -5
q3 -3 5 -3q3 -3 6 -4.5t8 -2.5q3 -1 7 -1zM997 758h-19v-118l-2 4q-1 3 -1 5l-74 103q-4 0 -7 5q-2 0 -5 0.5t-5 0.5h-14v-153h21v125l2 -1l1 -2v-4l88 -118h15v153zM2114 381q-7 -2 -12 -4l44 -60h-11q-4 0 -8 2q-1 1 -2 1.5t-2 4.5l-39 52h-25v-60h-17v138h51
q3 0 6.5 -0.5t9.5 -2.5q3 -1 6 -3t4 -4q4 -3 5.5 -6.5t6.5 -7.5q0 -3 0.5 -7.5t0.5 -5.5q0 -5 -0.5 -8.5t-0.5 -6.5q-3 -4 -4.5 -8t-2.5 -5zM1343 381q-2 -2 -12 -4l47 -60h-9q-3 0 -6 0.5t-3 1.5q-2 1 -4 1.5t-3 4.5l-39 52h-25v-60h-15v138h51q3 0 6 -0.5t7 -2.5
q7 -2 15 -7q1 -3 3.5 -6.5t3.5 -7.5q2 -3 2 -8v-14q0 -3 -2 -6q0 -4 -1.5 -8t-3.5 -5l-5 -5q-2 -2 -7 -4zM2460 452q3 2 4 2.5t3 0.5h12v-138h-14v114q0 -1 -2 -3v-2q-4 -8 -7 -17t-7 -14l-5.5 -14.5t-7.5 -13.5q-2 -8 -4 -14t-5 -12l-7 -12.5t-5 -11.5h-15
q-9 12 -14.5 25.5l-11.5 27.5q-5 14 -11.5 28t-11.5 28v2q-3 0 -3 1v-112h-16v138h14q5 0 7 -3q2 -1 2.5 -1.5t0.5 -3.5l48 -108q0 -3 3 -3v-1l1 2q1 2 1 4q0 4 5 8l41 98q2 3 3 3.5t2 1.5zM411 758h-95v-153h95v19h-73v47h60v20h-60v45h73v22zM1723 758h-94v-153h94v19h-73
v47h60v20h-60v45h73v22zM1479 758h-20v-103q0 -3 -3 -8q-1 -7 -10 -12q-1 -2 -4.5 -4.5t-5.5 -5.5l-9 -2h-7q-11 0 -15 2q-6 3 -9.5 5.5t-4.5 4.5q-2 2 -4 5t-7 7q0 5 -1 8.5t-1 10.5v92h-20v-92q0 -7 0.5 -11t1.5 -8q0 -7 5 -14q5 -9 11 -13q2 -2 5.5 -5t7.5 -5
q2 -1 5.5 -2t7.5 -3q5 -1 8.5 -2t9.5 -1q4 0 7 1t10 2q3 2 6 3t7 2q7 5 12 10q5 3 6.5 5.5t3.5 7.5q1 3 3.5 6.5t3.5 7.5v111zM663 631q2 5 3 8.5t1 9.5q0 11 -4.5 19t-11.5 14q-2 1 -3.5 2.5t-5.5 3.5l-6 2q-1 1 -3.5 1t-2.5 3q-5 0 -7 3q-6 1 -8.5 2t-6.5 3q-6 2 -7 3
q-6 4 -6 6v16q1 2 3.5 3.5t2.5 3.5q1 0 3.5 1t3.5 1q4 1 6.5 1.5t5.5 0.5l2 -1q2 -1 4 -1q7 0 8 -5q2 -1 4 -1h4q9 0 13 4l5 2q-1 2 -3 3l-3 4q-3 3 -5.5 5t-6.5 4q-2 0 -4.5 1.5t-7.5 3.5q-4 1 -5.5 1.5t-4.5 0.5q-5 0 -10 -0.5t-8 -1.5q-6 -2 -8.5 -4t-6.5 -3
q-2 -4 -6 -7.5t-5 -6.5q-1 -4 -2.5 -7.5t-1.5 -9.5q0 -5 0.5 -9t3.5 -7q1 -4 4 -7.5t5 -5.5l7 -4.5t9 -3.5q3 -3 6 -4.5t7 -2.5q3 -2 6.5 -2t5.5 -1l6 -2q2 0 4 -2q3 -2 3.5 -3.5t2.5 -5.5q2 -2 2 -5v-10q0 -3 -2 -5q-2 -3 -2.5 -4.5t-3.5 -3.5q-2 -4 -5.5 -5t-4.5 -2
q-3 0 -6 -0.5t-6 -0.5q-4 0 -6.5 0.5t-4.5 0.5q-2 1 -5 2t-3 5l-3 2q-5 4 -12 4h-4q-1 0 -4 -2l-7 -2q0 -5 4 -5q0 -2 3 -4q0 -3 3 -4q0 -1 1 -3h2q8 -8 17 -10.5t19 -2.5q5 0 9.5 0.5t10.5 2.5q4 1 9.5 3t7.5 7q4 2 7.5 5t4.5 9zM1598 631q6 9 6 18q0 11 -4 19t-13 14
q-5 4 -6 6q-2 0 -4.5 0.5t-4.5 1.5q0 1 -3 1t-5 3h-3q-2 1 -4 3q-3 1 -5 2t-5 3q-8 2 -9 3q-4 2 -5 3.5t-2 2.5q0 2 -1 3.5t-1 4.5q0 4 4 8q1 3 5 7q2 0 3 1t6 1q1 2 9 2q1 0 3.5 -1t4.5 -1q2 -2 8 -5q7 -1 9 -1q6 0 9 4l6 2q-1 2 -3.5 3.5t-4.5 3.5q-1 3 -3.5 5t-5.5 4
q-4 0 -6 1.5t-6 3.5q-3 1 -6.5 1.5t-4.5 0.5q-5 0 -9.5 -0.5t-8.5 -1.5l-14 -7q-4 -4 -6 -7.5t-5 -6.5q-2 -4 -3.5 -7.5t-1.5 -9.5q0 -5 1.5 -9t3.5 -7q4 -8 9 -13l6.5 -4.5t6.5 -3.5q5 -3 9 -4.5t7 -2.5q4 -2 5.5 -2t5.5 -1q2 -1 5 -1.5t5 -2.5t4.5 -3.5t2.5 -5.5
q2 -2 2.5 -4.5t0.5 -5.5q0 -2 -0.5 -5t-2.5 -5q-1 -6 -7 -8q-5 -4 -6.5 -5t-3.5 -2q-5 0 -6.5 -0.5t-4.5 -0.5t-6.5 0.5t-5.5 0.5q-5 2 -10 7l-2 2q-5 4 -10 4h-5q-3 0 -4 -2l-6 -2q1 -2 1 -3.5t3 -1.5q0 -1 0.5 -2t0.5 -2l2 -2q1 -1 1 -2q5 -3 7 -3q6 -8 15 -10.5t19 -2.5
q5 0 10 0.5t11 2.5q3 1 7 3t9 7l5 5q3 3 5 9zM1741 317h-16v138h13q2 0 4.5 -0.5t4.5 -3.5l73 -102q2 -1 2 -4l2 -3v113h15v-138h-13l-82 114v3h-3v-117zM78 351q-4 4 -5.5 8t-2.5 8q-3 6 -3.5 10t-0.5 10q0 7 4 16q1 4 2.5 9.5t5.5 8.5l3.5 8.5t7.5 6.5q1 2 5 5.5t7 5.5
q6 3 9.5 4.5t7.5 3.5q4 0 9.5 1.5t11.5 1.5q7 0 13.5 -2t13.5 -5q8 -2 13.5 -5.5t9.5 -9.5q-2 -2 -4 -2v-3h-3q0 -1 -2 -1h-3q-6 0 -7 1q-4 2 -7.5 4.5t-7.5 2.5q-5 1 -8 1h-8q-6 0 -11.5 -0.5t-9.5 -0.5q-6 -3 -11 -6t-9 -6q-4 -5 -6.5 -9t-4.5 -10q-4 -5 -4.5 -11t-0.5 -9
q0 -8 3 -15q1 -4 2.5 -7.5t1.5 -7.5l4 -5q3 -2 5 -5q4 -2 7 -5t7 -3q2 -3 5.5 -4.5t7.5 -2.5q3 -1 6 -1h16q4 0 10 1q3 1 8.5 2.5t8.5 4.5v29h-14l-1 2q-2 1 -3 2t-3 2l-2 1q-1 2 -1 4l-1 1v4h40v-53q-3 -5 -5 -6t-6 -5q-5 -1 -12 -1q-6 -2 -13 -2h-35q-4 1 -7.5 2.5
t-9.5 5.5q-3 1 -7 4t-5 7q-6 3 -7.5 7t-3.5 8zM2374 758h-18q-5 0 -9 -4q-7 -4 -7 -8l-36 -47l-2 -1q0 -1 -2 -1l-1 2l-37 47q-3 5 -6 8q-4 4 -11 4h-17l57 -76l1 -3q0 -1 2 -1l1 -2v-2l1 -1v-68h23v68q1 0 1 3q1 0 2 3v3h1zM240 438v-43h55v-16h-55v-47h68v-15h-85v138h85
v-17h-68zM1171 438v-43h59v-16h-59v-47h68v-15h-83v138h83v-17h-68zM642 455v-85q0 -5 2 -8.5t5 -5.5q1 -6 3.5 -8.5t4.5 -6.5q1 -2 4.5 -4t5.5 -4q5 -2 9 -2h16q3 0 6 2q5 2 8 4t7 4q1 4 3.5 6.5t4.5 8.5q4 5 4 14v85h14v-85q0 -6 -1 -10.5t-3 -10.5q-1 -7 -4.5 -11
t-7.5 -7q-3 -5 -7.5 -8t-9.5 -4q-11 -2 -22 -2t-24 2q-3 1 -7 4t-9 8q-6 6 -11 18q-2 6 -4 10.5t-2 10.5v85h15zM2252 624h-66v134h-23v-153h89v19zM1270 624h-66v134h-21v-153h87v19zM1453 336q2 3 4 9q2 2 2.5 5.5t0.5 5.5q0 8 -1 11q-2 1 -3 3.5t-3 3.5q-3 3 -9 5
q-4 0 -6 1.5t-7 2.5q-3 1 -6.5 3t-4.5 3q-11 1 -15 8q-3 0 -5 3t-4 5v15q0 6 0.5 9.5t1.5 6.5q1 8 9 11l7 4q3 2 8 4q3 0 5.5 1.5t8.5 1.5q2 0 5.5 -1.5t4.5 -1.5q3 0 5 -1.5t5 -2.5t4.5 -2.5t1.5 -3.5q6 -1 7 -3.5t2 -3.5l-3 -2q-3 -2 -9 -2h-6q-4 3 -4 4h-9l-1 1h-3
q-7 0 -9 -1q-7 0 -7 -2q-7 -5 -7 -8q-3 0 -3 -8q0 -5 3 -6q0 -4 4 -7q1 -1 3.5 -2.5t3.5 -1.5q4 -3 6.5 -3.5t7.5 -2.5q1 0 3.5 -0.5t2.5 -1.5q2 0 4 -0.5t5 -4.5h2v-1h2q2 0 3 -1l2 -1q6 -4 8 -7t5 -6q2 -9 2 -18q0 -6 -0.5 -10t-4.5 -7q-1 -7 -10 -13q-2 -3 -6 -4.5
t-7 -2.5q-4 -2 -9 -2h-11q-8 0 -16 1.5t-15 7.5q-1 0 -2.5 2.5t-4.5 4.5q0 2 -1 4l-1 2l3 3q1 1 4 1h2q3 0 5 -1.5t5 -2.5q4 -3 6.5 -4.5t5.5 -2.5q1 -1 4 -1h5q9 0 11 1q7 0 13 4zM1070 317l-61 138h6q6 0 10 -3q1 -1 2 -1.5t3 -3.5l44 -104v-4q1 -3 2 -5v6q1 2 1 3
l13.5 26t11.5 26q4 15 10 27.5l12 24.5q1 3 3 3.5t2 1.5q3 2 4 2.5t4 0.5h8l-15.5 -34.5t-15.5 -33.5l-15 -36l-14 -34h-15zM532 438v-48h60v-13h-60v-60h-16v138h86v-17h-70zM1957 438v-48h57v-13h-57v-60h-16v138h85v-17h-69zM370 317v121h-46v17h106v-17h-46v-121h-14z
M785 455v-123h62v-15h-79v138h17zM271 730q2 -3 3 -6t3 -5q1 -4 1 -10v-5q0 -2 -1 -5q-2 -2 -3 -5t-3 -4q-3 -4 -9 -7q-5 -1 -10 -1h-35v54h35q7 0 10 -2q3 0 5.5 -2t3.5 -2zM878 455v-123h64v-15h-79v138h15zM1325 390q5 0 6 4q3 1 5 2t5 1l2 4q1 2 3 4q0 2 1 5t1 8
q0 1 -1 2.5t-1 5.5q-2 2 -3 3.5t-2 4.5q-3 0 -5 1.5t-5 2.5h-42v-48h36zM2102 394q1 1 3 2t4 1q5 6 5 8q1 5 1 13q0 3 -1 8q0 2 -5 8q-2 0 -4 1.5t-3 2.5h-43v-48h34q5 0 9 4zM519 703q0 -1 -5 -8q-2 -1 -3 -2.5t-4 -2.5q-2 -2 -9 -2h-33v48h33q4 0 9 -2q3 0 4 -1.5t3 -2.5
q3 -5 5 -9q3 -2 3 -10q0 -6 -3 -8zM684 129l-27 68q0 1 -1 3t-1 3q0 4 -1 6v-6q0 -1 -1.5 -3t-1.5 -3l-28 -68h61zM1524 455v-138h-16v138h16zM1091 728q1 -2 1 -5l29 -64h-60l28 64q0 3 1 4v2zM1756 81q5 0 6 -6q1 -1 1 -5v-4q0 -6 -1 -9q-1 -5 -6 -9q-3 -1 -7 -4
q-1 -1 -3.5 -1.5t-5.5 -0.5q-2 0 -5 0.5t-4 1.5q-2 1 -4 2.5t-4 1.5q-1 2 -2.5 4t-4.5 5q-1 3 -1 9v4q0 4 1 5l4 4q2 2 3 2q5 6 8 6q1 3 4 3.5t5 0.5q3 0 5.5 -0.5t3.5 -3.5q4 0 7 -6z" />
    <glyph glyph-name="five" unicode="5" 
d="M2479 1091v-585h-2405v585h912q0 31 4.5 59.5t18.5 54.5q12 27 27 51t37 43q38 40 92 61q26 13 54 18t57 5q33 0 61.5 -6t53.5 -18q29 -13 52.5 -29t42.5 -35q36 -37 62 -94q19 -54 19 -110h912zM1030 1193q-21 -47 -21 -102q0 -56 21 -103q11 -24 25 -45.5t31 -41.5
q18 -18 39.5 -32.5t45.5 -24.5q48 -23 105 -23q30 0 55.5 5t48.5 15q25 11 45.5 25t39.5 33q19 18 33.5 39.5t25.5 44.5q23 53 23 108q0 24 -4.5 47.5t-13.5 44.5q-13 40 -42 75q-14 17 -30 30.5t-33 25.5l-38.5 19.5t-39.5 15.5q-15 5 -32.5 7.5t-37.5 2.5q-29 0 -55.5 -6
t-51.5 -18q-48 -18 -84 -57q-17 -18 -30.5 -40t-24.5 -45zM1141 935l315 319q30 -39 46 -80t16 -83q0 -22 -3.5 -43.5t-11.5 -41.5q-8 -18 -18 -35.5t-23 -35.5h-321zM1094 928q-27 35 -44 75q-8 19 -11 42t-3 46q0 22 3 42t11 40q5 20 15.5 37t23.5 34h321zM1134 207
q3 -5 5 -11t6 -14q2 -7 2 -14v-31q0 -7 -2 -13q-4 -7 -6 -14t-5 -13l-8.5 -11t-9.5 -11q-7 -5 -11.5 -9.5t-11.5 -7.5q-5 -6 -12 -8t-13 -5q-9 -1 -16.5 -2t-14.5 -1q-11 0 -21.5 2.5t-21.5 5.5q-12 5 -20 11t-16 14q-15 16 -23 35q-4 11 -6 21.5t-2 22.5q0 7 0.5 14t2.5 14
q4 16 12 25q4 8 8 13t8 11q6 5 11.5 9l12.5 9l11.5 5.5t15.5 5.5q5 1 12 2t16 1q7 0 14.5 -1t16.5 -2q6 -3 13 -5.5t12 -5.5q7 -5 11.5 -9t11.5 -9l9.5 -11t8.5 -13zM2195 207q3 -5 6 -11t5 -14q3 -7 3 -14v-31q0 -7 -3 -13q-2 -7 -5 -14t-6 -13q-6 -11 -16 -22l-13 -9.5
t-11 -7.5q-7 -6 -13.5 -8t-14.5 -5q-6 -1 -13 -2t-16 -1q-21 0 -43 8q-9 5 -17.5 11t-16.5 14q-7 7 -13.5 15.5t-9.5 19.5q-5 11 -7 21.5t-2 22.5q0 7 1 14t1 14q3 8 6.5 14l6.5 11q3 8 7 13t10 11q5 5 10.5 9l12.5 9q5 3 12 5.5t13 5.5q9 1 16 2t13 1q9 0 16 -1t13 -2
l14.5 -5.5t13.5 -5.5q5 -5 11 -9l13 -9q3 -6 8.5 -11t7.5 -13zM2433 260q1 0 2 1t6 1h38v-218h-38v159q-2 -1 -2.5 -3.5t-2.5 -6.5q-1 -3 -1 -5.5t-1 -5.5l-14.5 -34.5t-15.5 -33.5q-5 -17 -12 -34t-14 -36h-38l-55 138q-3 4 -3 11q-1 3 -3 4l-1 1v-154h-41v218h38
q6 0 7.5 -1t2.5 -1q3 -2 4 -2t3 -1l7 -5q1 -2 3 -4t2 -4q5 -16 12 -32l14 -33q6 -17 12.5 -33.5t13.5 -31.5v-11q2 0 3 -4q0 4 2 4v5q0 2 0.5 3.5t0.5 2.5l8 15l45 115q0 2 1 4l2 4q1 2 4 3t3 2q2 1 4 1t4 2zM1330 262h39v-218h-38l-101 147l-3 1l-1 2q-3 4 -3 7q-4 1 -4 4
q-1 1 -1.5 2t-2.5 2v-165h-40v218h36q4 0 7.5 -1t4.5 -3q4 -1 6 -2t4 -3l22 -32q11 -16 21 -34q14 -14 24.5 -29.5t24.5 -30.5q0 -3 1 -5.5t2 -6.5q0 -1 1 -3t1 -4v154zM672 262l94 -218h-24q-9 0 -17 4q-3 2 -4.5 6.5t-5.5 8.5l-12 28h-100l-11 -28q-1 -4 -2 -5t-3 -1
q-1 -5 -3 -6l-4 -3q-2 0 -3.5 -1.5t-4.5 -1.5q0 -1 -3 -1h-28l95 218h36zM260 262h139v-38h-99v-50h80v-40h-80v-53h99v-37h-139v218zM1966 659q1 7 1 11v22q0 6 -1 10q-3 9 -9 19q-4 6 -14 15q-2 3 -5.5 6t-7.5 8q-5 1 -10 3l-10 4q-5 1 -9 1.5t-11 0.5q-6 0 -11 -0.5
t-9 -1.5q-12 -4 -20 -7q-4 -5 -7.5 -8t-7.5 -6q-4 -4 -7 -7.5t-6 -7.5q-2 -6 -4.5 -10t-3.5 -9q-3 -10 -3 -23q0 -6 1.5 -14t5.5 -14q5 -16 17 -27q5 -5 11 -9t13 -5q13 -6 31 -6h11q4 0 9 1q5 2 10 3.5t10 4.5q4 4 7.5 6t5.5 5q10 7 14 17q6 9 9 18zM838 659q1 7 2 11t1 9
q0 13 -3 23q-1 5 -3.5 9t-4.5 10q-4 6 -13 15q-3 3 -7 6t-10 8q-3 1 -7 3t-10 4q-5 1 -10 1.5t-11 0.5q-5 0 -10 -0.5t-10 -1.5q-6 -2 -10.5 -4t-8.5 -3q-4 -5 -8 -8t-9 -6q-3 -4 -6 -7.5t-5 -7.5q-4 -6 -5 -10t-3 -9q-3 -10 -3 -23q0 -6 2 -14t4 -14q3 -8 7.5 -14.5
l8.5 -12.5q7 -5 13.5 -9t14.5 -5q12 -6 28 -6h11q5 0 10 1q11 4 17 8q13 6 17 11q6 7 13 17q2 5 4.5 9.5t3.5 8.5zM74 262h159v-24q0 -2 -2 -4q0 -5 -1.5 -6.5t-4.5 -3.5l-106 -145h2l1 2h109v-37h-165v13q0 8 1 11q0 2 6 8l1 4l2 4q2 2 3.5 4.5t2.5 5.5l95 130h-103v38z
M1839 203q-8 -9 -15 -24q-2 -5 -4 -11.5t-2 -13.5q0 -8 2 -14.5l4 -12.5q3 -9 6.5 -14.5t8.5 -9.5q4 -5 10 -8.5l13 -7.5q8 -3 14.5 -4.5t13.5 -1.5t11 1.5t9 1.5q5 2 10 5t10 7q4 1 7 2h13q4 0 7 -1q6 -2 9 -6l7 -10q-6 -8 -16 -15q-6 -3 -11 -6t-11 -6q-5 -4 -10.5 -5.5
t-11.5 -3.5t-11 -2.5t-12 -0.5q-13 0 -23.5 2.5t-20.5 5.5q-21 10 -35 25q-16 16 -24 35q-4 11 -6.5 21.5t-2.5 22.5q0 7 1 14t3 14q1 8 3.5 14t7.5 11q5 8 8.5 13t9.5 11q6 5 11.5 9l12.5 9q5 3 11 5.5t15 5.5q6 1 13.5 2t15.5 1h12q5 0 11 -3q6 -2 11.5 -3.5t10.5 -3.5
q6 -3 11 -6t11 -7q10 -9 16 -16l-7 -9q-3 -3 -5 -4.5t-4 -3.5h-14q-3 0 -6.5 0.5t-6.5 2.5q-5 4 -10 6.5t-10 5.5q-5 1 -9 1.5t-11 0.5q-16 0 -28 -6q-7 -3 -13 -6.5t-10 -8.5zM1690 149q3 -3 6 -7t4 -9q1 -4 3 -9t2 -12q0 -14 -7 -28l-8 -12q-4 -6 -9 -9l-11 -9t-13 -6
q-7 -3 -15 -4.5t-14 -1.5q-8 0 -15.5 1.5t-16.5 4.5q-7 2 -12 6.5l-12 10.5q-4 2 -6 6l-4 8q-5 2 -6 12h1q1 1 5 3l1 1q1 1 3 2h4l2 1h12q3 0 4 -1q7 0 10 -3q4 -3 8 -5.5t6 -4.5q2 0 6 -1.5t10 -1.5q2 0 5 0.5t8 2.5q6 2 11 7q6 3 9 7t4.5 7t1.5 7q0 7 -6 11q-4 6 -9 6
q-2 4 -5.5 5t-5.5 3q-7 1 -15 6q-6 1 -10.5 2t-10.5 4q-7 4 -11.5 7t-8.5 7q-5 3 -8.5 7.5t-4.5 8.5q-6 12 -6 24q0 18 6 26q2 7 6 11l9 9q4 3 9.5 5.5t13.5 5.5q5 1 11 2t13 1q4 0 8.5 -1t9.5 -2q6 -2 9 -3.5t8 -3.5q4 -3 7.5 -6t6.5 -7q2 -2 6 -5.5t5 -6.5l-8 -5
q-2 -1 -5 -3t-4 -5h-18q-7 2 -7 3q-3 1 -6 4q-2 0 -3 0.5t-2 0.5q-5 1 -7 1q-8 0 -12 -1q-3 0 -4 -1t-5 -3q-2 -1 -6 -7q-1 -3 -1 -9t1 -6q3 -3 4 -4.5t2 -5.5q4 0 6.5 -0.5t6.5 -1.5q4 -2 9.5 -4.5t8.5 -3.5l8 -2q6 -4 11 -6t11 -6q9 -3 16 -14zM1104 127q2 6 3 12.5
t1 14.5q0 12 -4 25q-3 10 -7.5 14.5t-10.5 9.5q-3 5 -8.5 8.5t-12.5 6.5q-12 6 -28 6t-28 -6l-10.5 -6.5t-10.5 -8.5q-7 -5 -10 -9.5t-6 -14.5q-5 -5 -5.5 -11.5t-0.5 -13.5q0 -8 0.5 -14.5t5.5 -12.5q3 -9 6 -14.5t10 -9.5q5 -5 10.5 -8.5t10.5 -7.5q6 -3 13 -4.5t15 -1.5
q7 0 14 1.5t14 4.5q7 4 12.5 7.5t8.5 8.5q6 4 10.5 9.5t7.5 14.5zM2283 336q-6 -5 -11.5 -9t-12.5 -7q-6 -2 -12 -2.5t-13 -0.5q-9 0 -16.5 0.5t-13.5 2.5q-13 4 -23 16q-4 4 -7.5 9.5l-7.5 11.5l-4 15.5t-2 14.5q0 3 1 7.5t2 8.5t2.5 9.5t4.5 8.5q3 5 6 8.5t5 6.5
q5 2 8.5 5.5t7.5 5.5q5 3 9.5 4.5t7.5 3.5q6 0 9.5 1.5t10.5 1.5q3 0 7.5 -1.5t10.5 -1.5l9 -3.5t7 -4.5q4 -2 8.5 -5.5t6.5 -5.5l4.5 -6.5t4.5 -8.5q6 -7 8 -18q2 -4 3 -8.5t1 -7.5q0 -7 -1 -14.5t-5 -15.5q-1 -6 -5.5 -11.5t-9.5 -9.5zM2164 127q6 12 6 27q0 7 -2 13.5
t-4 11.5q-2 10 -5.5 14.5t-8.5 9.5q-9 10 -24 15q-5 4 -12 5t-16 1q-14 0 -27 -6q-6 -3 -11.5 -6.5t-10.5 -8.5t-9 -9.5t-8 -14.5q-1 -5 -2 -11.5t-1 -13.5q0 -8 1 -14.5l2 -12.5q7 -16 17 -24q5 -5 10.5 -8.5l11.5 -7.5q7 -3 14.5 -4.5t12.5 -1.5q9 0 16 1.5t12 4.5
l13.5 7.5t10.5 8.5q10 9 14 24zM1579 336q-12 9 -17 21q-6 14 -6 30q0 3 0.5 7.5t0.5 8.5q6 11 9 18q5 8 13 15q6 8 12 11q5 3 9.5 4.5t9.5 3.5q4 0 8 1.5t10 1.5q5 0 10.5 -1.5t10.5 -1.5q3 -2 7.5 -3.5t8.5 -4.5q3 -2 6.5 -5.5t6.5 -5.5q4 -3 5.5 -6.5t6.5 -8.5
q3 -7 7 -18q1 -4 2 -8.5t1 -7.5q0 -7 -1.5 -14.5t-5.5 -15.5q-2 -6 -6 -11.5t-9 -9.5q-5 -5 -10.5 -9t-13.5 -7t-26 -3q-8 0 -15 0.5t-12 2.5q-15 4 -22 16zM775 262h139v-38h-100v-57h82v-38h-82v-85h-39v218zM572 224h-60v-180h-42v180h-64v38h166v-38zM1188 864
q-19 9 -37.5 20.5t-34.5 25.5h322q-16 -14 -34.5 -25.5t-38.5 -20.5q-21 -6 -43.5 -11.5t-45.5 -5.5q-24 0 -45 5.5zM1365 1315q20 -8 38.5 -20t33.5 -24h-323q35 30 74 44q39 18 88 18t89 -18zM1389 262h165v-38h-65v-180h-39v180h-61v38zM560 605l-48 66q3 1 6 1.5t6 3.5
q7 3 8 10q3 2 5.5 5.5t3.5 7.5v23q0 4 -2 8q-4 7 -10 13q-4 9 -15 9q-2 3 -7 4.5t-9 1.5h-55v-153h22v63h24l39 -55q2 -4 7 -6q2 -2 4 -2h21zM801 721q5 -3 9 -8.5t6 -9.5q1 -5 2.5 -11t1.5 -13q0 -5 -1.5 -10.5t-2.5 -11.5q-2 -4 -6 -8.5t-9 -7.5q-2 -4 -6.5 -7t-9.5 -7
q-4 -2 -10.5 -3t-12.5 -1q-11 0 -23 4q-4 4 -8.5 7t-9.5 7q-2 3 -6 7.5t-6 8.5q-3 6 -4 11.5t-1 10.5q0 12 5 24q2 4 6 9.5t6 8.5q5 5 9.5 7.5t8.5 5.5q7 2 12.5 3t10.5 1q12 0 23 -4l9.5 -5.5t6.5 -7.5zM1169 605l-67 153h-21l-68 -153h13q8 0 10 2q1 2 2 3t4 3l10 26h79
l9 -26q3 -4 7 -6q1 -2 9 -2h13zM1931 721q3 -3 6.5 -8.5t5.5 -9.5q2 -5 3 -11t1 -13q0 -11 -4 -22q-2 -4 -5.5 -8.5t-6.5 -7.5q-5 -4 -9.5 -7t-8.5 -7q-11 -4 -23 -4q-6 0 -12 1t-10 3q-6 4 -10 7t-8 7q-4 3 -7 7.5t-4 8.5q-3 6 -4.5 11.5t-1.5 10.5q0 12 6 24q1 4 4 9.5
t7 8.5q4 5 8 7.5t10 5.5q9 4 22 4q7 0 11.5 -1t11.5 -3q4 -3 8.5 -5.5t9.5 -7.5zM295 690q7 12 7 19q0 5 -1.5 9.5t-5.5 11.5q0 2 -4 5l-6 7q-2 4 -5.5 7t-8.5 3q-3 3 -8.5 4.5t-10.5 1.5h-54v-153h19v57h35q5 0 10.5 0.5t8.5 3.5q10 4 14 9q3 3 6.5 7t3.5 8zM2126 758h-21
v-119q-2 2 -2.5 5t-2.5 5l-74 103l-5 5q-1 0 -4 0.5t-5 0.5h-16v-153h23v125h1v-4l1 -3l88 -118h17v153zM1579 407q-4 -5 -5.5 -11t-1.5 -9q0 -4 0.5 -8t1.5 -7q1 -7 7 -15q1 -2 3 -4.5t4 -5.5l5 -5q3 -3 8 -3q3 -3 6.5 -4.5t5.5 -2.5q4 -1 8 -1h14q6 0 8 1q3 1 6 2.5t8 4.5
q2 0 5 3l5 5q2 3 5 5.5t4 4.5q2 4 3 7.5t2 7.5q1 3 1.5 7t0.5 8q0 3 -1 9t-4 11q-1 6 -4.5 10t-6.5 9q-3 3 -8 6l-10 6q-4 0 -9.5 0.5t-11.5 0.5q-7 0 -11.5 -0.5t-10.5 -0.5q-4 -3 -9.5 -6t-8.5 -6l-5.5 -9t-3.5 -10zM2225 331h15q4 0 9 1q3 1 5.5 2.5t4.5 4.5q3 0 6.5 3
t7.5 5q2 3 3.5 5.5t4.5 4.5q1 4 2.5 7.5t1.5 7.5q1 3 1 7v8q0 3 -0.5 9t-0.5 11q-2 6 -6 10t-6 9q-6 3 -10.5 6t-8.5 6q-4 0 -10 0.5t-10 0.5q-7 0 -12 -0.5t-11 -0.5q-6 -3 -10 -6t-7 -6q-5 -5 -8 -9t-5 -10q-2 -5 -2 -11v-24q1 -4 2 -7.5t5 -7.5q1 -2 3 -4.5t5 -5.5l5 -5
q3 -3 5 -3q3 -3 6 -4.5t8 -2.5q3 -1 7 -1zM997 758h-19v-118l-2 4q-1 3 -1 5l-74 103q-4 0 -7 5q-2 0 -5 0.5t-5 0.5h-14v-153h21v125l2 -1l1 -2v-4l88 -118h15v153zM2114 381q-7 -2 -12 -4l44 -60h-11q-4 0 -8 2q-1 1 -2 1.5t-2 4.5l-39 52h-25v-60h-17v138h51
q3 0 6.5 -0.5t9.5 -2.5q3 -1 6 -3t4 -4q4 -3 5.5 -6.5t6.5 -7.5q0 -3 0.5 -7.5t0.5 -5.5q0 -5 -0.5 -8.5t-0.5 -6.5q-3 -4 -4.5 -8t-2.5 -5zM1343 381q-2 -2 -12 -4l47 -60h-9q-3 0 -6 0.5t-3 1.5q-2 1 -4 1.5t-3 4.5l-39 52h-25v-60h-15v138h51q3 0 6 -0.5t7 -2.5
q7 -2 15 -7q1 -3 3.5 -6.5t3.5 -7.5q2 -3 2 -8v-14q0 -3 -2 -6q0 -4 -1.5 -8t-3.5 -5l-5 -5q-2 -2 -7 -4zM2460 452q3 2 4 2.5t3 0.5h12v-138h-14v114q0 -1 -2 -3v-2q-4 -8 -7 -17t-7 -14l-5.5 -14.5t-7.5 -13.5q-2 -8 -4 -14t-5 -12l-7 -12.5t-5 -11.5h-15
q-9 12 -14.5 25.5l-11.5 27.5q-5 14 -11.5 28t-11.5 28v2q-3 0 -3 1v-112h-16v138h14q5 0 7 -3q2 -1 2.5 -1.5t0.5 -3.5l48 -108q0 -3 3 -3v-1l1 2q1 2 1 4q0 4 5 8l41 98q2 3 3 3.5t2 1.5zM411 758h-95v-153h95v19h-73v47h60v20h-60v45h73v22zM1723 758h-94v-153h94v19h-73
v47h60v20h-60v45h73v22zM1479 758h-20v-103q0 -3 -3 -8q-1 -7 -10 -12q-1 -2 -4.5 -4.5t-5.5 -5.5l-9 -2h-7q-11 0 -15 2q-6 3 -9.5 5.5t-4.5 4.5q-2 2 -4 5t-7 7q0 5 -1 8.5t-1 10.5v92h-20v-92q0 -7 0.5 -11t1.5 -8q0 -7 5 -14q5 -9 11 -13q2 -2 5.5 -5t7.5 -5
q2 -1 5.5 -2t7.5 -3q5 -1 8.5 -2t9.5 -1q4 0 7 1t10 2q3 2 6 3t7 2q7 5 12 10q5 3 6.5 5.5t3.5 7.5q1 3 3.5 6.5t3.5 7.5v111zM663 631q2 5 3 8.5t1 9.5q0 11 -4.5 19t-11.5 14q-2 1 -3.5 2.5t-5.5 3.5l-6 2q-1 1 -3.5 1t-2.5 3q-5 0 -7 3q-6 1 -8.5 2t-6.5 3q-6 2 -7 3
q-6 4 -6 6v16q1 2 3.5 3.5t2.5 3.5q1 0 3.5 1t3.5 1q4 1 6.5 1.5t5.5 0.5l2 -1q2 -1 4 -1q7 0 8 -5q2 -1 4 -1h4q9 0 13 4l5 2q-1 2 -3 3l-3 4q-3 3 -5.5 5t-6.5 4q-2 0 -4.5 1.5t-7.5 3.5q-4 1 -5.5 1.5t-4.5 0.5q-5 0 -10 -0.5t-8 -1.5q-6 -2 -8.5 -4t-6.5 -3
q-2 -4 -6 -7.5t-5 -6.5q-1 -4 -2.5 -7.5t-1.5 -9.5q0 -5 0.5 -9t3.5 -7q1 -4 4 -7.5t5 -5.5l7 -4.5t9 -3.5q3 -3 6 -4.5t7 -2.5q3 -2 6.5 -2t5.5 -1l6 -2q2 0 4 -2q3 -2 3.5 -3.5t2.5 -5.5q2 -2 2 -5v-10q0 -3 -2 -5q-2 -3 -2.5 -4.5t-3.5 -3.5q-2 -4 -5.5 -5t-4.5 -2
q-3 0 -6 -0.5t-6 -0.5q-4 0 -6.5 0.5t-4.5 0.5q-2 1 -5 2t-3 5l-3 2q-5 4 -12 4h-4q-1 0 -4 -2l-7 -2q0 -5 4 -5q0 -2 3 -4q0 -3 3 -4q0 -1 1 -3h2q8 -8 17 -10.5t19 -2.5q5 0 9.5 0.5t10.5 2.5q4 1 9.5 3t7.5 7q4 2 7.5 5t4.5 9zM1598 631q6 9 6 18q0 11 -4 19t-13 14
q-5 4 -6 6q-2 0 -4.5 0.5t-4.5 1.5q0 1 -3 1t-5 3h-3q-2 1 -4 3q-3 1 -5 2t-5 3q-8 2 -9 3q-4 2 -5 3.5t-2 2.5q0 2 -1 3.5t-1 4.5q0 4 4 8q1 3 5 7q2 0 3 1t6 1q1 2 9 2q1 0 3.5 -1t4.5 -1q2 -2 8 -5q7 -1 9 -1q6 0 9 4l6 2q-1 2 -3.5 3.5t-4.5 3.5q-1 3 -3.5 5t-5.5 4
q-4 0 -6 1.5t-6 3.5q-3 1 -6.5 1.5t-4.5 0.5q-5 0 -9.5 -0.5t-8.5 -1.5l-14 -7q-4 -4 -6 -7.5t-5 -6.5q-2 -4 -3.5 -7.5t-1.5 -9.5q0 -5 1.5 -9t3.5 -7q4 -8 9 -13l6.5 -4.5t6.5 -3.5q5 -3 9 -4.5t7 -2.5q4 -2 5.5 -2t5.5 -1q2 -1 5 -1.5t5 -2.5t4.5 -3.5t2.5 -5.5
q2 -2 2.5 -4.5t0.5 -5.5q0 -2 -0.5 -5t-2.5 -5q-1 -6 -7 -8q-5 -4 -6.5 -5t-3.5 -2q-5 0 -6.5 -0.5t-4.5 -0.5t-6.5 0.5t-5.5 0.5q-5 2 -10 7l-2 2q-5 4 -10 4h-5q-3 0 -4 -2l-6 -2q1 -2 1 -3.5t3 -1.5q0 -1 0.5 -2t0.5 -2l2 -2q1 -1 1 -2q5 -3 7 -3q6 -8 15 -10.5t19 -2.5
q5 0 10 0.5t11 2.5q3 1 7 3t9 7l5 5q3 3 5 9zM1741 317h-16v138h13q2 0 4.5 -0.5t4.5 -3.5l73 -102q2 -1 2 -4l2 -3v113h15v-138h-13l-82 114v3h-3v-117zM78 351q-4 4 -5.5 8t-2.5 8q-3 6 -3.5 10t-0.5 10q0 7 4 16q1 4 2.5 9.5t5.5 8.5l3.5 8.5t7.5 6.5q1 2 5 5.5t7 5.5
q6 3 9.5 4.5t7.5 3.5q4 0 9.5 1.5t11.5 1.5q7 0 13.5 -2t13.5 -5q8 -2 13.5 -5.5t9.5 -9.5q-2 -2 -4 -2v-3h-3q0 -1 -2 -1h-3q-6 0 -7 1q-4 2 -7.5 4.5t-7.5 2.5q-5 1 -8 1h-8q-6 0 -11.5 -0.5t-9.5 -0.5q-6 -3 -11 -6t-9 -6q-4 -5 -6.5 -9t-4.5 -10q-4 -5 -4.5 -11t-0.5 -9
q0 -8 3 -15q1 -4 2.5 -7.5t1.5 -7.5l4 -5q3 -2 5 -5q4 -2 7 -5t7 -3q2 -3 5.5 -4.5t7.5 -2.5q3 -1 6 -1h16q4 0 10 1q3 1 8.5 2.5t8.5 4.5v29h-14l-1 2q-2 1 -3 2t-3 2l-2 1q-1 2 -1 4l-1 1v4h40v-53q-3 -5 -5 -6t-6 -5q-5 -1 -12 -1q-6 -2 -13 -2h-35q-4 1 -7.5 2.5
t-9.5 5.5q-3 1 -7 4t-5 7q-6 3 -7.5 7t-3.5 8zM2374 758h-18q-5 0 -9 -4q-7 -4 -7 -8l-36 -47l-2 -1q0 -1 -2 -1l-1 2l-37 47q-3 5 -6 8q-4 4 -11 4h-17l57 -76l1 -3q0 -1 2 -1l1 -2v-2l1 -1v-68h23v68q1 0 1 3q1 0 2 3v3h1zM240 438v-43h55v-16h-55v-47h68v-15h-85v138h85
v-17h-68zM1171 438v-43h59v-16h-59v-47h68v-15h-83v138h83v-17h-68zM642 455v-85q0 -5 2 -8.5t5 -5.5q1 -6 3.5 -8.5t4.5 -6.5q1 -2 4.5 -4t5.5 -4q5 -2 9 -2h16q3 0 6 2q5 2 8 4t7 4q1 4 3.5 6.5t4.5 8.5q4 5 4 14v85h14v-85q0 -6 -1 -10.5t-3 -10.5q-1 -7 -4.5 -11
t-7.5 -7q-3 -5 -7.5 -8t-9.5 -4q-11 -2 -22 -2t-24 2q-3 1 -7 4t-9 8q-6 6 -11 18q-2 6 -4 10.5t-2 10.5v85h15zM2252 624h-66v134h-23v-153h89v19zM1270 624h-66v134h-21v-153h87v19zM1453 336q2 3 4 9q2 2 2.5 5.5t0.5 5.5q0 8 -1 11q-2 1 -3 3.5t-3 3.5q-3 3 -9 5
q-4 0 -6 1.5t-7 2.5q-3 1 -6.5 3t-4.5 3q-11 1 -15 8q-3 0 -5 3t-4 5v15q0 6 0.5 9.5t1.5 6.5q1 8 9 11l7 4q3 2 8 4q3 0 5.5 1.5t8.5 1.5q2 0 5.5 -1.5t4.5 -1.5q3 0 5 -1.5t5 -2.5t4.5 -2.5t1.5 -3.5q6 -1 7 -3.5t2 -3.5l-3 -2q-3 -2 -9 -2h-6q-4 3 -4 4h-9l-1 1h-3
q-7 0 -9 -1q-7 0 -7 -2q-7 -5 -7 -8q-3 0 -3 -8q0 -5 3 -6q0 -4 4 -7q1 -1 3.5 -2.5t3.5 -1.5q4 -3 6.5 -3.5t7.5 -2.5q1 0 3.5 -0.5t2.5 -1.5q2 0 4 -0.5t5 -4.5h2v-1h2q2 0 3 -1l2 -1q6 -4 8 -7t5 -6q2 -9 2 -18q0 -6 -0.5 -10t-4.5 -7q-1 -7 -10 -13q-2 -3 -6 -4.5
t-7 -2.5q-4 -2 -9 -2h-11q-8 0 -16 1.5t-15 7.5q-1 0 -2.5 2.5t-4.5 4.5q0 2 -1 4l-1 2l3 3q1 1 4 1h2q3 0 5 -1.5t5 -2.5q4 -3 6.5 -4.5t5.5 -2.5q1 -1 4 -1h5q9 0 11 1q7 0 13 4zM1070 317l-61 138h6q6 0 10 -3q1 -1 2 -1.5t3 -3.5l44 -104v-4q1 -3 2 -5v6q1 2 1 3
l13.5 26t11.5 26q4 15 10 27.5l12 24.5q1 3 3 3.5t2 1.5q3 2 4 2.5t4 0.5h8l-15.5 -34.5t-15.5 -33.5l-15 -36l-14 -34h-15zM532 438v-48h60v-13h-60v-60h-16v138h86v-17h-70zM1957 438v-48h57v-13h-57v-60h-16v138h85v-17h-69zM370 317v121h-46v17h106v-17h-46v-121h-14z
M785 455v-123h62v-15h-79v138h17zM271 730q2 -3 3 -6t3 -5q1 -4 1 -10v-5q0 -2 -1 -5q-2 -2 -3 -5t-3 -4q-3 -4 -9 -7q-5 -1 -10 -1h-35v54h35q7 0 10 -2q3 0 5.5 -2t3.5 -2zM878 455v-123h64v-15h-79v138h15zM1325 390q5 0 6 4q3 1 5 2t5 1l2 4q1 2 3 4q0 2 1 5t1 8
q0 1 -1 2.5t-1 5.5q-2 2 -3 3.5t-2 4.5q-3 0 -5 1.5t-5 2.5h-42v-48h36zM2102 394q1 1 3 2t4 1q5 6 5 8q1 5 1 13q0 3 -1 8q0 2 -5 8q-2 0 -4 1.5t-3 2.5h-43v-48h34q5 0 9 4zM519 703q0 -1 -5 -8q-2 -1 -3 -2.5t-4 -2.5q-2 -2 -9 -2h-33v48h33q4 0 9 -2q3 0 4 -1.5t3 -2.5
q3 -5 5 -9q3 -2 3 -10q0 -6 -3 -8zM684 129l-27 68q0 1 -1 3t-1 3q0 4 -1 6v-6q0 -1 -1.5 -3t-1.5 -3l-28 -68h61zM1524 455v-138h-16v138h16zM1091 728q1 -2 1 -5l29 -64h-60l28 64q0 3 1 4v2zM1756 81q5 0 6 -6q1 -1 1 -5v-4q0 -6 -1 -9q-1 -5 -6 -9q-3 -1 -7 -4
q-1 -1 -3.5 -1.5t-5.5 -0.5q-2 0 -5 0.5t-4 1.5q-2 1 -4 2.5t-4 1.5q-1 2 -2.5 4t-4.5 5q-1 3 -1 9v4q0 4 1 5l4 4q2 2 3 2q5 6 8 6q1 3 4 3.5t5 0.5q3 0 5.5 -0.5t3.5 -3.5q4 0 7 -6z" />
    <glyph glyph-name="six" unicode="6" 
d="M2479 1091v-585h-2405v585h912q0 31 4.5 59.5t18.5 54.5q12 27 27 51t37 43q38 40 92 61q26 13 54 18t57 5q33 0 61.5 -6t53.5 -18q29 -13 52.5 -29t42.5 -35q36 -37 62 -94q19 -54 19 -110h912zM1030 1193q-21 -47 -21 -102q0 -56 21 -103q11 -24 25 -45.5t31 -41.5
q18 -18 39.5 -32.5t45.5 -24.5q48 -23 105 -23q30 0 55.5 5t48.5 15q25 11 45.5 25t39.5 33q19 18 33.5 39.5t25.5 44.5q23 53 23 108q0 24 -4.5 47.5t-13.5 44.5q-13 40 -42 75q-14 17 -30 30.5t-33 25.5l-38.5 19.5t-39.5 15.5q-15 5 -32.5 7.5t-37.5 2.5q-29 0 -55.5 -6
t-51.5 -18q-48 -18 -84 -57q-17 -18 -30.5 -40t-24.5 -45zM1141 935l315 319q30 -39 46 -80t16 -83q0 -22 -3.5 -43.5t-11.5 -41.5q-8 -18 -18 -35.5t-23 -35.5h-321zM1094 928q-27 35 -44 75q-8 19 -11 42t-3 46q0 22 3 42t11 40q5 20 15.5 37t23.5 34h321zM1134 207
q3 -5 5 -11t6 -14q2 -7 2 -14v-31q0 -7 -2 -13q-4 -7 -6 -14t-5 -13l-8.5 -11t-9.5 -11q-7 -5 -11.5 -9.5t-11.5 -7.5q-5 -6 -12 -8t-13 -5q-9 -1 -16.5 -2t-14.5 -1q-11 0 -21.5 2.5t-21.5 5.5q-12 5 -20 11t-16 14q-15 16 -23 35q-4 11 -6 21.5t-2 22.5q0 7 0.5 14t2.5 14
q4 16 12 25q4 8 8 13t8 11q6 5 11.5 9l12.5 9l11.5 5.5t15.5 5.5q5 1 12 2t16 1q7 0 14.5 -1t16.5 -2q6 -3 13 -5.5t12 -5.5q7 -5 11.5 -9t11.5 -9l9.5 -11t8.5 -13zM2195 207q3 -5 6 -11t5 -14q3 -7 3 -14v-31q0 -7 -3 -13q-2 -7 -5 -14t-6 -13q-6 -11 -16 -22l-13 -9.5
t-11 -7.5q-7 -6 -13.5 -8t-14.5 -5q-6 -1 -13 -2t-16 -1q-21 0 -43 8q-9 5 -17.5 11t-16.5 14q-7 7 -13.5 15.5t-9.5 19.5q-5 11 -7 21.5t-2 22.5q0 7 1 14t1 14q3 8 6.5 14l6.5 11q3 8 7 13t10 11q5 5 10.5 9l12.5 9q5 3 12 5.5t13 5.5q9 1 16 2t13 1q9 0 16 -1t13 -2
l14.5 -5.5t13.5 -5.5q5 -5 11 -9l13 -9q3 -6 8.5 -11t7.5 -13zM2433 260q1 0 2 1t6 1h38v-218h-38v159q-2 -1 -2.5 -3.5t-2.5 -6.5q-1 -3 -1 -5.5t-1 -5.5l-14.5 -34.5t-15.5 -33.5q-5 -17 -12 -34t-14 -36h-38l-55 138q-3 4 -3 11q-1 3 -3 4l-1 1v-154h-41v218h38
q6 0 7.5 -1t2.5 -1q3 -2 4 -2t3 -1l7 -5q1 -2 3 -4t2 -4q5 -16 12 -32l14 -33q6 -17 12.5 -33.5t13.5 -31.5v-11q2 0 3 -4q0 4 2 4v5q0 2 0.5 3.5t0.5 2.5l8 15l45 115q0 2 1 4l2 4q1 2 4 3t3 2q2 1 4 1t4 2zM1330 262h39v-218h-38l-101 147l-3 1l-1 2q-3 4 -3 7q-4 1 -4 4
q-1 1 -1.5 2t-2.5 2v-165h-40v218h36q4 0 7.5 -1t4.5 -3q4 -1 6 -2t4 -3l22 -32q11 -16 21 -34q14 -14 24.5 -29.5t24.5 -30.5q0 -3 1 -5.5t2 -6.5q0 -1 1 -3t1 -4v154zM672 262l94 -218h-24q-9 0 -17 4q-3 2 -4.5 6.5t-5.5 8.5l-12 28h-100l-11 -28q-1 -4 -2 -5t-3 -1
q-1 -5 -3 -6l-4 -3q-2 0 -3.5 -1.5t-4.5 -1.5q0 -1 -3 -1h-28l95 218h36zM260 262h139v-38h-99v-50h80v-40h-80v-53h99v-37h-139v218zM1966 659q1 7 1 11v22q0 6 -1 10q-3 9 -9 19q-4 6 -14 15q-2 3 -5.5 6t-7.5 8q-5 1 -10 3l-10 4q-5 1 -9 1.5t-11 0.5q-6 0 -11 -0.5
t-9 -1.5q-12 -4 -20 -7q-4 -5 -7.5 -8t-7.5 -6q-4 -4 -7 -7.5t-6 -7.5q-2 -6 -4.5 -10t-3.5 -9q-3 -10 -3 -23q0 -6 1.5 -14t5.5 -14q5 -16 17 -27q5 -5 11 -9t13 -5q13 -6 31 -6h11q4 0 9 1q5 2 10 3.5t10 4.5q4 4 7.5 6t5.5 5q10 7 14 17q6 9 9 18zM838 659q1 7 2 11t1 9
q0 13 -3 23q-1 5 -3.5 9t-4.5 10q-4 6 -13 15q-3 3 -7 6t-10 8q-3 1 -7 3t-10 4q-5 1 -10 1.5t-11 0.5q-5 0 -10 -0.5t-10 -1.5q-6 -2 -10.5 -4t-8.5 -3q-4 -5 -8 -8t-9 -6q-3 -4 -6 -7.5t-5 -7.5q-4 -6 -5 -10t-3 -9q-3 -10 -3 -23q0 -6 2 -14t4 -14q3 -8 7.5 -14.5
l8.5 -12.5q7 -5 13.5 -9t14.5 -5q12 -6 28 -6h11q5 0 10 1q11 4 17 8q13 6 17 11q6 7 13 17q2 5 4.5 9.5t3.5 8.5zM74 262h159v-24q0 -2 -2 -4q0 -5 -1.5 -6.5t-4.5 -3.5l-106 -145h2l1 2h109v-37h-165v13q0 8 1 11q0 2 6 8l1 4l2 4q2 2 3.5 4.5t2.5 5.5l95 130h-103v38z
M1839 203q-8 -9 -15 -24q-2 -5 -4 -11.5t-2 -13.5q0 -8 2 -14.5l4 -12.5q3 -9 6.5 -14.5t8.5 -9.5q4 -5 10 -8.5l13 -7.5q8 -3 14.5 -4.5t13.5 -1.5t11 1.5t9 1.5q5 2 10 5t10 7q4 1 7 2h13q4 0 7 -1q6 -2 9 -6l7 -10q-6 -8 -16 -15q-6 -3 -11 -6t-11 -6q-5 -4 -10.5 -5.5
t-11.5 -3.5t-11 -2.5t-12 -0.5q-13 0 -23.5 2.5t-20.5 5.5q-21 10 -35 25q-16 16 -24 35q-4 11 -6.5 21.5t-2.5 22.5q0 7 1 14t3 14q1 8 3.5 14t7.5 11q5 8 8.5 13t9.5 11q6 5 11.5 9l12.5 9q5 3 11 5.5t15 5.5q6 1 13.5 2t15.5 1h12q5 0 11 -3q6 -2 11.5 -3.5t10.5 -3.5
q6 -3 11 -6t11 -7q10 -9 16 -16l-7 -9q-3 -3 -5 -4.5t-4 -3.5h-14q-3 0 -6.5 0.5t-6.5 2.5q-5 4 -10 6.5t-10 5.5q-5 1 -9 1.5t-11 0.5q-16 0 -28 -6q-7 -3 -13 -6.5t-10 -8.5zM1690 149q3 -3 6 -7t4 -9q1 -4 3 -9t2 -12q0 -14 -7 -28l-8 -12q-4 -6 -9 -9l-11 -9t-13 -6
q-7 -3 -15 -4.5t-14 -1.5q-8 0 -15.5 1.5t-16.5 4.5q-7 2 -12 6.5l-12 10.5q-4 2 -6 6l-4 8q-5 2 -6 12h1q1 1 5 3l1 1q1 1 3 2h4l2 1h12q3 0 4 -1q7 0 10 -3q4 -3 8 -5.5t6 -4.5q2 0 6 -1.5t10 -1.5q2 0 5 0.5t8 2.5q6 2 11 7q6 3 9 7t4.5 7t1.5 7q0 7 -6 11q-4 6 -9 6
q-2 4 -5.5 5t-5.5 3q-7 1 -15 6q-6 1 -10.5 2t-10.5 4q-7 4 -11.5 7t-8.5 7q-5 3 -8.5 7.5t-4.5 8.5q-6 12 -6 24q0 18 6 26q2 7 6 11l9 9q4 3 9.5 5.5t13.5 5.5q5 1 11 2t13 1q4 0 8.5 -1t9.5 -2q6 -2 9 -3.5t8 -3.5q4 -3 7.5 -6t6.5 -7q2 -2 6 -5.5t5 -6.5l-8 -5
q-2 -1 -5 -3t-4 -5h-18q-7 2 -7 3q-3 1 -6 4q-2 0 -3 0.5t-2 0.5q-5 1 -7 1q-8 0 -12 -1q-3 0 -4 -1t-5 -3q-2 -1 -6 -7q-1 -3 -1 -9t1 -6q3 -3 4 -4.5t2 -5.5q4 0 6.5 -0.5t6.5 -1.5q4 -2 9.5 -4.5t8.5 -3.5l8 -2q6 -4 11 -6t11 -6q9 -3 16 -14zM1104 127q2 6 3 12.5
t1 14.5q0 12 -4 25q-3 10 -7.5 14.5t-10.5 9.5q-3 5 -8.5 8.5t-12.5 6.5q-12 6 -28 6t-28 -6l-10.5 -6.5t-10.5 -8.5q-7 -5 -10 -9.5t-6 -14.5q-5 -5 -5.5 -11.5t-0.5 -13.5q0 -8 0.5 -14.5t5.5 -12.5q3 -9 6 -14.5t10 -9.5q5 -5 10.5 -8.5t10.5 -7.5q6 -3 13 -4.5t15 -1.5
q7 0 14 1.5t14 4.5q7 4 12.5 7.5t8.5 8.5q6 4 10.5 9.5t7.5 14.5zM2283 336q-6 -5 -11.5 -9t-12.5 -7q-6 -2 -12 -2.5t-13 -0.5q-9 0 -16.5 0.5t-13.5 2.5q-13 4 -23 16q-4 4 -7.5 9.5l-7.5 11.5l-4 15.5t-2 14.5q0 3 1 7.5t2 8.5t2.5 9.5t4.5 8.5q3 5 6 8.5t5 6.5
q5 2 8.5 5.5t7.5 5.5q5 3 9.5 4.5t7.5 3.5q6 0 9.5 1.5t10.5 1.5q3 0 7.5 -1.5t10.5 -1.5l9 -3.5t7 -4.5q4 -2 8.5 -5.5t6.5 -5.5l4.5 -6.5t4.5 -8.5q6 -7 8 -18q2 -4 3 -8.5t1 -7.5q0 -7 -1 -14.5t-5 -15.5q-1 -6 -5.5 -11.5t-9.5 -9.5zM2164 127q6 12 6 27q0 7 -2 13.5
t-4 11.5q-2 10 -5.5 14.5t-8.5 9.5q-9 10 -24 15q-5 4 -12 5t-16 1q-14 0 -27 -6q-6 -3 -11.5 -6.5t-10.5 -8.5t-9 -9.5t-8 -14.5q-1 -5 -2 -11.5t-1 -13.5q0 -8 1 -14.5l2 -12.5q7 -16 17 -24q5 -5 10.5 -8.5l11.5 -7.5q7 -3 14.5 -4.5t12.5 -1.5q9 0 16 1.5t12 4.5
l13.5 7.5t10.5 8.5q10 9 14 24zM1579 336q-12 9 -17 21q-6 14 -6 30q0 3 0.5 7.5t0.5 8.5q6 11 9 18q5 8 13 15q6 8 12 11q5 3 9.5 4.5t9.5 3.5q4 0 8 1.5t10 1.5q5 0 10.5 -1.5t10.5 -1.5q3 -2 7.5 -3.5t8.5 -4.5q3 -2 6.5 -5.5t6.5 -5.5q4 -3 5.5 -6.5t6.5 -8.5
q3 -7 7 -18q1 -4 2 -8.5t1 -7.5q0 -7 -1.5 -14.5t-5.5 -15.5q-2 -6 -6 -11.5t-9 -9.5q-5 -5 -10.5 -9t-13.5 -7t-26 -3q-8 0 -15 0.5t-12 2.5q-15 4 -22 16zM775 262h139v-38h-100v-57h82v-38h-82v-85h-39v218zM572 224h-60v-180h-42v180h-64v38h166v-38zM1188 864
q-19 9 -37.5 20.5t-34.5 25.5h322q-16 -14 -34.5 -25.5t-38.5 -20.5q-21 -6 -43.5 -11.5t-45.5 -5.5q-24 0 -45 5.5zM1365 1315q20 -8 38.5 -20t33.5 -24h-323q35 30 74 44q39 18 88 18t89 -18zM1389 262h165v-38h-65v-180h-39v180h-61v38zM560 605l-48 66q3 1 6 1.5t6 3.5
q7 3 8 10q3 2 5.5 5.5t3.5 7.5v23q0 4 -2 8q-4 7 -10 13q-4 9 -15 9q-2 3 -7 4.5t-9 1.5h-55v-153h22v63h24l39 -55q2 -4 7 -6q2 -2 4 -2h21zM801 721q5 -3 9 -8.5t6 -9.5q1 -5 2.5 -11t1.5 -13q0 -5 -1.5 -10.5t-2.5 -11.5q-2 -4 -6 -8.5t-9 -7.5q-2 -4 -6.5 -7t-9.5 -7
q-4 -2 -10.5 -3t-12.5 -1q-11 0 -23 4q-4 4 -8.5 7t-9.5 7q-2 3 -6 7.5t-6 8.5q-3 6 -4 11.5t-1 10.5q0 12 5 24q2 4 6 9.5t6 8.5q5 5 9.5 7.5t8.5 5.5q7 2 12.5 3t10.5 1q12 0 23 -4l9.5 -5.5t6.5 -7.5zM1169 605l-67 153h-21l-68 -153h13q8 0 10 2q1 2 2 3t4 3l10 26h79
l9 -26q3 -4 7 -6q1 -2 9 -2h13zM1931 721q3 -3 6.5 -8.5t5.5 -9.5q2 -5 3 -11t1 -13q0 -11 -4 -22q-2 -4 -5.5 -8.5t-6.5 -7.5q-5 -4 -9.5 -7t-8.5 -7q-11 -4 -23 -4q-6 0 -12 1t-10 3q-6 4 -10 7t-8 7q-4 3 -7 7.5t-4 8.5q-3 6 -4.5 11.5t-1.5 10.5q0 12 6 24q1 4 4 9.5
t7 8.5q4 5 8 7.5t10 5.5q9 4 22 4q7 0 11.5 -1t11.5 -3q4 -3 8.5 -5.5t9.5 -7.5zM295 690q7 12 7 19q0 5 -1.5 9.5t-5.5 11.5q0 2 -4 5l-6 7q-2 4 -5.5 7t-8.5 3q-3 3 -8.5 4.5t-10.5 1.5h-54v-153h19v57h35q5 0 10.5 0.5t8.5 3.5q10 4 14 9q3 3 6.5 7t3.5 8zM2126 758h-21
v-119q-2 2 -2.5 5t-2.5 5l-74 103l-5 5q-1 0 -4 0.5t-5 0.5h-16v-153h23v125h1v-4l1 -3l88 -118h17v153zM1579 407q-4 -5 -5.5 -11t-1.5 -9q0 -4 0.5 -8t1.5 -7q1 -7 7 -15q1 -2 3 -4.5t4 -5.5l5 -5q3 -3 8 -3q3 -3 6.5 -4.5t5.5 -2.5q4 -1 8 -1h14q6 0 8 1q3 1 6 2.5t8 4.5
q2 0 5 3l5 5q2 3 5 5.5t4 4.5q2 4 3 7.5t2 7.5q1 3 1.5 7t0.5 8q0 3 -1 9t-4 11q-1 6 -4.5 10t-6.5 9q-3 3 -8 6l-10 6q-4 0 -9.5 0.5t-11.5 0.5q-7 0 -11.5 -0.5t-10.5 -0.5q-4 -3 -9.5 -6t-8.5 -6l-5.5 -9t-3.5 -10zM2225 331h15q4 0 9 1q3 1 5.5 2.5t4.5 4.5q3 0 6.5 3
t7.5 5q2 3 3.5 5.5t4.5 4.5q1 4 2.5 7.5t1.5 7.5q1 3 1 7v8q0 3 -0.5 9t-0.5 11q-2 6 -6 10t-6 9q-6 3 -10.5 6t-8.5 6q-4 0 -10 0.5t-10 0.5q-7 0 -12 -0.5t-11 -0.5q-6 -3 -10 -6t-7 -6q-5 -5 -8 -9t-5 -10q-2 -5 -2 -11v-24q1 -4 2 -7.5t5 -7.5q1 -2 3 -4.5t5 -5.5l5 -5
q3 -3 5 -3q3 -3 6 -4.5t8 -2.5q3 -1 7 -1zM997 758h-19v-118l-2 4q-1 3 -1 5l-74 103q-4 0 -7 5q-2 0 -5 0.5t-5 0.5h-14v-153h21v125l2 -1l1 -2v-4l88 -118h15v153zM2114 381q-7 -2 -12 -4l44 -60h-11q-4 0 -8 2q-1 1 -2 1.5t-2 4.5l-39 52h-25v-60h-17v138h51
q3 0 6.5 -0.5t9.5 -2.5q3 -1 6 -3t4 -4q4 -3 5.5 -6.5t6.5 -7.5q0 -3 0.5 -7.5t0.5 -5.5q0 -5 -0.5 -8.5t-0.5 -6.5q-3 -4 -4.5 -8t-2.5 -5zM1343 381q-2 -2 -12 -4l47 -60h-9q-3 0 -6 0.5t-3 1.5q-2 1 -4 1.5t-3 4.5l-39 52h-25v-60h-15v138h51q3 0 6 -0.5t7 -2.5
q7 -2 15 -7q1 -3 3.5 -6.5t3.5 -7.5q2 -3 2 -8v-14q0 -3 -2 -6q0 -4 -1.5 -8t-3.5 -5l-5 -5q-2 -2 -7 -4zM2460 452q3 2 4 2.5t3 0.5h12v-138h-14v114q0 -1 -2 -3v-2q-4 -8 -7 -17t-7 -14l-5.5 -14.5t-7.5 -13.5q-2 -8 -4 -14t-5 -12l-7 -12.5t-5 -11.5h-15
q-9 12 -14.5 25.5l-11.5 27.5q-5 14 -11.5 28t-11.5 28v2q-3 0 -3 1v-112h-16v138h14q5 0 7 -3q2 -1 2.5 -1.5t0.5 -3.5l48 -108q0 -3 3 -3v-1l1 2q1 2 1 4q0 4 5 8l41 98q2 3 3 3.5t2 1.5zM411 758h-95v-153h95v19h-73v47h60v20h-60v45h73v22zM1723 758h-94v-153h94v19h-73
v47h60v20h-60v45h73v22zM1479 758h-20v-103q0 -3 -3 -8q-1 -7 -10 -12q-1 -2 -4.5 -4.5t-5.5 -5.5l-9 -2h-7q-11 0 -15 2q-6 3 -9.5 5.5t-4.5 4.5q-2 2 -4 5t-7 7q0 5 -1 8.5t-1 10.5v92h-20v-92q0 -7 0.5 -11t1.5 -8q0 -7 5 -14q5 -9 11 -13q2 -2 5.5 -5t7.5 -5
q2 -1 5.5 -2t7.5 -3q5 -1 8.5 -2t9.5 -1q4 0 7 1t10 2q3 2 6 3t7 2q7 5 12 10q5 3 6.5 5.5t3.5 7.5q1 3 3.5 6.5t3.5 7.5v111zM663 631q2 5 3 8.5t1 9.5q0 11 -4.5 19t-11.5 14q-2 1 -3.5 2.5t-5.5 3.5l-6 2q-1 1 -3.5 1t-2.5 3q-5 0 -7 3q-6 1 -8.5 2t-6.5 3q-6 2 -7 3
q-6 4 -6 6v16q1 2 3.5 3.5t2.5 3.5q1 0 3.5 1t3.5 1q4 1 6.5 1.5t5.5 0.5l2 -1q2 -1 4 -1q7 0 8 -5q2 -1 4 -1h4q9 0 13 4l5 2q-1 2 -3 3l-3 4q-3 3 -5.5 5t-6.5 4q-2 0 -4.5 1.5t-7.5 3.5q-4 1 -5.5 1.5t-4.5 0.5q-5 0 -10 -0.5t-8 -1.5q-6 -2 -8.5 -4t-6.5 -3
q-2 -4 -6 -7.5t-5 -6.5q-1 -4 -2.5 -7.5t-1.5 -9.5q0 -5 0.5 -9t3.5 -7q1 -4 4 -7.5t5 -5.5l7 -4.5t9 -3.5q3 -3 6 -4.5t7 -2.5q3 -2 6.5 -2t5.5 -1l6 -2q2 0 4 -2q3 -2 3.5 -3.5t2.5 -5.5q2 -2 2 -5v-10q0 -3 -2 -5q-2 -3 -2.5 -4.5t-3.5 -3.5q-2 -4 -5.5 -5t-4.5 -2
q-3 0 -6 -0.5t-6 -0.5q-4 0 -6.5 0.5t-4.5 0.5q-2 1 -5 2t-3 5l-3 2q-5 4 -12 4h-4q-1 0 -4 -2l-7 -2q0 -5 4 -5q0 -2 3 -4q0 -3 3 -4q0 -1 1 -3h2q8 -8 17 -10.5t19 -2.5q5 0 9.5 0.5t10.5 2.5q4 1 9.5 3t7.5 7q4 2 7.5 5t4.5 9zM1598 631q6 9 6 18q0 11 -4 19t-13 14
q-5 4 -6 6q-2 0 -4.5 0.5t-4.5 1.5q0 1 -3 1t-5 3h-3q-2 1 -4 3q-3 1 -5 2t-5 3q-8 2 -9 3q-4 2 -5 3.5t-2 2.5q0 2 -1 3.5t-1 4.5q0 4 4 8q1 3 5 7q2 0 3 1t6 1q1 2 9 2q1 0 3.5 -1t4.5 -1q2 -2 8 -5q7 -1 9 -1q6 0 9 4l6 2q-1 2 -3.5 3.5t-4.5 3.5q-1 3 -3.5 5t-5.5 4
q-4 0 -6 1.5t-6 3.5q-3 1 -6.5 1.5t-4.5 0.5q-5 0 -9.5 -0.5t-8.5 -1.5l-14 -7q-4 -4 -6 -7.5t-5 -6.5q-2 -4 -3.5 -7.5t-1.5 -9.5q0 -5 1.5 -9t3.5 -7q4 -8 9 -13l6.5 -4.5t6.5 -3.5q5 -3 9 -4.5t7 -2.5q4 -2 5.5 -2t5.5 -1q2 -1 5 -1.5t5 -2.5t4.5 -3.5t2.5 -5.5
q2 -2 2.5 -4.5t0.5 -5.5q0 -2 -0.5 -5t-2.5 -5q-1 -6 -7 -8q-5 -4 -6.5 -5t-3.5 -2q-5 0 -6.5 -0.5t-4.5 -0.5t-6.5 0.5t-5.5 0.5q-5 2 -10 7l-2 2q-5 4 -10 4h-5q-3 0 -4 -2l-6 -2q1 -2 1 -3.5t3 -1.5q0 -1 0.5 -2t0.5 -2l2 -2q1 -1 1 -2q5 -3 7 -3q6 -8 15 -10.5t19 -2.5
q5 0 10 0.5t11 2.5q3 1 7 3t9 7l5 5q3 3 5 9zM1741 317h-16v138h13q2 0 4.5 -0.5t4.5 -3.5l73 -102q2 -1 2 -4l2 -3v113h15v-138h-13l-82 114v3h-3v-117zM78 351q-4 4 -5.5 8t-2.5 8q-3 6 -3.5 10t-0.5 10q0 7 4 16q1 4 2.5 9.5t5.5 8.5l3.5 8.5t7.5 6.5q1 2 5 5.5t7 5.5
q6 3 9.5 4.5t7.5 3.5q4 0 9.5 1.5t11.5 1.5q7 0 13.5 -2t13.5 -5q8 -2 13.5 -5.5t9.5 -9.5q-2 -2 -4 -2v-3h-3q0 -1 -2 -1h-3q-6 0 -7 1q-4 2 -7.5 4.5t-7.5 2.5q-5 1 -8 1h-8q-6 0 -11.5 -0.5t-9.5 -0.5q-6 -3 -11 -6t-9 -6q-4 -5 -6.5 -9t-4.5 -10q-4 -5 -4.5 -11t-0.5 -9
q0 -8 3 -15q1 -4 2.5 -7.5t1.5 -7.5l4 -5q3 -2 5 -5q4 -2 7 -5t7 -3q2 -3 5.5 -4.5t7.5 -2.5q3 -1 6 -1h16q4 0 10 1q3 1 8.5 2.5t8.5 4.5v29h-14l-1 2q-2 1 -3 2t-3 2l-2 1q-1 2 -1 4l-1 1v4h40v-53q-3 -5 -5 -6t-6 -5q-5 -1 -12 -1q-6 -2 -13 -2h-35q-4 1 -7.5 2.5
t-9.5 5.5q-3 1 -7 4t-5 7q-6 3 -7.5 7t-3.5 8zM2374 758h-18q-5 0 -9 -4q-7 -4 -7 -8l-36 -47l-2 -1q0 -1 -2 -1l-1 2l-37 47q-3 5 -6 8q-4 4 -11 4h-17l57 -76l1 -3q0 -1 2 -1l1 -2v-2l1 -1v-68h23v68q1 0 1 3q1 0 2 3v3h1zM240 438v-43h55v-16h-55v-47h68v-15h-85v138h85
v-17h-68zM1171 438v-43h59v-16h-59v-47h68v-15h-83v138h83v-17h-68zM642 455v-85q0 -5 2 -8.5t5 -5.5q1 -6 3.5 -8.5t4.5 -6.5q1 -2 4.5 -4t5.5 -4q5 -2 9 -2h16q3 0 6 2q5 2 8 4t7 4q1 4 3.5 6.5t4.5 8.5q4 5 4 14v85h14v-85q0 -6 -1 -10.5t-3 -10.5q-1 -7 -4.5 -11
t-7.5 -7q-3 -5 -7.5 -8t-9.5 -4q-11 -2 -22 -2t-24 2q-3 1 -7 4t-9 8q-6 6 -11 18q-2 6 -4 10.5t-2 10.5v85h15zM2252 624h-66v134h-23v-153h89v19zM1270 624h-66v134h-21v-153h87v19zM1453 336q2 3 4 9q2 2 2.5 5.5t0.5 5.5q0 8 -1 11q-2 1 -3 3.5t-3 3.5q-3 3 -9 5
q-4 0 -6 1.5t-7 2.5q-3 1 -6.5 3t-4.5 3q-11 1 -15 8q-3 0 -5 3t-4 5v15q0 6 0.5 9.5t1.5 6.5q1 8 9 11l7 4q3 2 8 4q3 0 5.5 1.5t8.5 1.5q2 0 5.5 -1.5t4.5 -1.5q3 0 5 -1.5t5 -2.5t4.5 -2.5t1.5 -3.5q6 -1 7 -3.5t2 -3.5l-3 -2q-3 -2 -9 -2h-6q-4 3 -4 4h-9l-1 1h-3
q-7 0 -9 -1q-7 0 -7 -2q-7 -5 -7 -8q-3 0 -3 -8q0 -5 3 -6q0 -4 4 -7q1 -1 3.5 -2.5t3.5 -1.5q4 -3 6.5 -3.5t7.5 -2.5q1 0 3.5 -0.5t2.5 -1.5q2 0 4 -0.5t5 -4.5h2v-1h2q2 0 3 -1l2 -1q6 -4 8 -7t5 -6q2 -9 2 -18q0 -6 -0.5 -10t-4.5 -7q-1 -7 -10 -13q-2 -3 -6 -4.5
t-7 -2.5q-4 -2 -9 -2h-11q-8 0 -16 1.5t-15 7.5q-1 0 -2.5 2.5t-4.5 4.5q0 2 -1 4l-1 2l3 3q1 1 4 1h2q3 0 5 -1.5t5 -2.5q4 -3 6.5 -4.5t5.5 -2.5q1 -1 4 -1h5q9 0 11 1q7 0 13 4zM1070 317l-61 138h6q6 0 10 -3q1 -1 2 -1.5t3 -3.5l44 -104v-4q1 -3 2 -5v6q1 2 1 3
l13.5 26t11.5 26q4 15 10 27.5l12 24.5q1 3 3 3.5t2 1.5q3 2 4 2.5t4 0.5h8l-15.5 -34.5t-15.5 -33.5l-15 -36l-14 -34h-15zM532 438v-48h60v-13h-60v-60h-16v138h86v-17h-70zM1957 438v-48h57v-13h-57v-60h-16v138h85v-17h-69zM370 317v121h-46v17h106v-17h-46v-121h-14z
M785 455v-123h62v-15h-79v138h17zM271 730q2 -3 3 -6t3 -5q1 -4 1 -10v-5q0 -2 -1 -5q-2 -2 -3 -5t-3 -4q-3 -4 -9 -7q-5 -1 -10 -1h-35v54h35q7 0 10 -2q3 0 5.5 -2t3.5 -2zM878 455v-123h64v-15h-79v138h15zM1325 390q5 0 6 4q3 1 5 2t5 1l2 4q1 2 3 4q0 2 1 5t1 8
q0 1 -1 2.5t-1 5.5q-2 2 -3 3.5t-2 4.5q-3 0 -5 1.5t-5 2.5h-42v-48h36zM2102 394q1 1 3 2t4 1q5 6 5 8q1 5 1 13q0 3 -1 8q0 2 -5 8q-2 0 -4 1.5t-3 2.5h-43v-48h34q5 0 9 4zM519 703q0 -1 -5 -8q-2 -1 -3 -2.5t-4 -2.5q-2 -2 -9 -2h-33v48h33q4 0 9 -2q3 0 4 -1.5t3 -2.5
q3 -5 5 -9q3 -2 3 -10q0 -6 -3 -8zM684 129l-27 68q0 1 -1 3t-1 3q0 4 -1 6v-6q0 -1 -1.5 -3t-1.5 -3l-28 -68h61zM1524 455v-138h-16v138h16zM1091 728q1 -2 1 -5l29 -64h-60l28 64q0 3 1 4v2zM1756 81q5 0 6 -6q1 -1 1 -5v-4q0 -6 -1 -9q-1 -5 -6 -9q-3 -1 -7 -4
q-1 -1 -3.5 -1.5t-5.5 -0.5q-2 0 -5 0.5t-4 1.5q-2 1 -4 2.5t-4 1.5q-1 2 -2.5 4t-4.5 5q-1 3 -1 9v4q0 4 1 5l4 4q2 2 3 2q5 6 8 6q1 3 4 3.5t5 0.5q3 0 5.5 -0.5t3.5 -3.5q4 0 7 -6z" />
    <glyph glyph-name="seven" unicode="7" 
d="M2479 1091v-585h-2405v585h912q0 31 4.5 59.5t18.5 54.5q12 27 27 51t37 43q38 40 92 61q26 13 54 18t57 5q33 0 61.5 -6t53.5 -18q29 -13 52.5 -29t42.5 -35q36 -37 62 -94q19 -54 19 -110h912zM1030 1193q-21 -47 -21 -102q0 -56 21 -103q11 -24 25 -45.5t31 -41.5
q18 -18 39.5 -32.5t45.5 -24.5q48 -23 105 -23q30 0 55.5 5t48.5 15q25 11 45.5 25t39.5 33q19 18 33.5 39.5t25.5 44.5q23 53 23 108q0 24 -4.5 47.5t-13.5 44.5q-13 40 -42 75q-14 17 -30 30.5t-33 25.5l-38.5 19.5t-39.5 15.5q-15 5 -32.5 7.5t-37.5 2.5q-29 0 -55.5 -6
t-51.5 -18q-48 -18 -84 -57q-17 -18 -30.5 -40t-24.5 -45zM1141 935l315 319q30 -39 46 -80t16 -83q0 -22 -3.5 -43.5t-11.5 -41.5q-8 -18 -18 -35.5t-23 -35.5h-321zM1094 928q-27 35 -44 75q-8 19 -11 42t-3 46q0 22 3 42t11 40q5 20 15.5 37t23.5 34h321zM1134 207
q3 -5 5 -11t6 -14q2 -7 2 -14v-31q0 -7 -2 -13q-4 -7 -6 -14t-5 -13l-8.5 -11t-9.5 -11q-7 -5 -11.5 -9.5t-11.5 -7.5q-5 -6 -12 -8t-13 -5q-9 -1 -16.5 -2t-14.5 -1q-11 0 -21.5 2.5t-21.5 5.5q-12 5 -20 11t-16 14q-15 16 -23 35q-4 11 -6 21.5t-2 22.5q0 7 0.5 14t2.5 14
q4 16 12 25q4 8 8 13t8 11q6 5 11.5 9l12.5 9l11.5 5.5t15.5 5.5q5 1 12 2t16 1q7 0 14.5 -1t16.5 -2q6 -3 13 -5.5t12 -5.5q7 -5 11.5 -9t11.5 -9l9.5 -11t8.5 -13zM2195 207q3 -5 6 -11t5 -14q3 -7 3 -14v-31q0 -7 -3 -13q-2 -7 -5 -14t-6 -13q-6 -11 -16 -22l-13 -9.5
t-11 -7.5q-7 -6 -13.5 -8t-14.5 -5q-6 -1 -13 -2t-16 -1q-21 0 -43 8q-9 5 -17.5 11t-16.5 14q-7 7 -13.5 15.5t-9.5 19.5q-5 11 -7 21.5t-2 22.5q0 7 1 14t1 14q3 8 6.5 14l6.5 11q3 8 7 13t10 11q5 5 10.5 9l12.5 9q5 3 12 5.5t13 5.5q9 1 16 2t13 1q9 0 16 -1t13 -2
l14.5 -5.5t13.5 -5.5q5 -5 11 -9l13 -9q3 -6 8.5 -11t7.5 -13zM2433 260q1 0 2 1t6 1h38v-218h-38v159q-2 -1 -2.5 -3.5t-2.5 -6.5q-1 -3 -1 -5.5t-1 -5.5l-14.5 -34.5t-15.5 -33.5q-5 -17 -12 -34t-14 -36h-38l-55 138q-3 4 -3 11q-1 3 -3 4l-1 1v-154h-41v218h38
q6 0 7.5 -1t2.5 -1q3 -2 4 -2t3 -1l7 -5q1 -2 3 -4t2 -4q5 -16 12 -32l14 -33q6 -17 12.5 -33.5t13.5 -31.5v-11q2 0 3 -4q0 4 2 4v5q0 2 0.5 3.5t0.5 2.5l8 15l45 115q0 2 1 4l2 4q1 2 4 3t3 2q2 1 4 1t4 2zM1330 262h39v-218h-38l-101 147l-3 1l-1 2q-3 4 -3 7q-4 1 -4 4
q-1 1 -1.5 2t-2.5 2v-165h-40v218h36q4 0 7.5 -1t4.5 -3q4 -1 6 -2t4 -3l22 -32q11 -16 21 -34q14 -14 24.5 -29.5t24.5 -30.5q0 -3 1 -5.5t2 -6.5q0 -1 1 -3t1 -4v154zM672 262l94 -218h-24q-9 0 -17 4q-3 2 -4.5 6.5t-5.5 8.5l-12 28h-100l-11 -28q-1 -4 -2 -5t-3 -1
q-1 -5 -3 -6l-4 -3q-2 0 -3.5 -1.5t-4.5 -1.5q0 -1 -3 -1h-28l95 218h36zM260 262h139v-38h-99v-50h80v-40h-80v-53h99v-37h-139v218zM1966 659q1 7 1 11v22q0 6 -1 10q-3 9 -9 19q-4 6 -14 15q-2 3 -5.5 6t-7.5 8q-5 1 -10 3l-10 4q-5 1 -9 1.5t-11 0.5q-6 0 -11 -0.5
t-9 -1.5q-12 -4 -20 -7q-4 -5 -7.5 -8t-7.5 -6q-4 -4 -7 -7.5t-6 -7.5q-2 -6 -4.5 -10t-3.5 -9q-3 -10 -3 -23q0 -6 1.5 -14t5.5 -14q5 -16 17 -27q5 -5 11 -9t13 -5q13 -6 31 -6h11q4 0 9 1q5 2 10 3.5t10 4.5q4 4 7.5 6t5.5 5q10 7 14 17q6 9 9 18zM838 659q1 7 2 11t1 9
q0 13 -3 23q-1 5 -3.5 9t-4.5 10q-4 6 -13 15q-3 3 -7 6t-10 8q-3 1 -7 3t-10 4q-5 1 -10 1.5t-11 0.5q-5 0 -10 -0.5t-10 -1.5q-6 -2 -10.5 -4t-8.5 -3q-4 -5 -8 -8t-9 -6q-3 -4 -6 -7.5t-5 -7.5q-4 -6 -5 -10t-3 -9q-3 -10 -3 -23q0 -6 2 -14t4 -14q3 -8 7.5 -14.5
l8.5 -12.5q7 -5 13.5 -9t14.5 -5q12 -6 28 -6h11q5 0 10 1q11 4 17 8q13 6 17 11q6 7 13 17q2 5 4.5 9.5t3.5 8.5zM74 262h159v-24q0 -2 -2 -4q0 -5 -1.5 -6.5t-4.5 -3.5l-106 -145h2l1 2h109v-37h-165v13q0 8 1 11q0 2 6 8l1 4l2 4q2 2 3.5 4.5t2.5 5.5l95 130h-103v38z
M1839 203q-8 -9 -15 -24q-2 -5 -4 -11.5t-2 -13.5q0 -8 2 -14.5l4 -12.5q3 -9 6.5 -14.5t8.5 -9.5q4 -5 10 -8.5l13 -7.5q8 -3 14.5 -4.5t13.5 -1.5t11 1.5t9 1.5q5 2 10 5t10 7q4 1 7 2h13q4 0 7 -1q6 -2 9 -6l7 -10q-6 -8 -16 -15q-6 -3 -11 -6t-11 -6q-5 -4 -10.5 -5.5
t-11.5 -3.5t-11 -2.5t-12 -0.5q-13 0 -23.5 2.5t-20.5 5.5q-21 10 -35 25q-16 16 -24 35q-4 11 -6.5 21.5t-2.5 22.5q0 7 1 14t3 14q1 8 3.5 14t7.5 11q5 8 8.5 13t9.5 11q6 5 11.5 9l12.5 9q5 3 11 5.5t15 5.5q6 1 13.5 2t15.5 1h12q5 0 11 -3q6 -2 11.5 -3.5t10.5 -3.5
q6 -3 11 -6t11 -7q10 -9 16 -16l-7 -9q-3 -3 -5 -4.5t-4 -3.5h-14q-3 0 -6.5 0.5t-6.5 2.5q-5 4 -10 6.5t-10 5.5q-5 1 -9 1.5t-11 0.5q-16 0 -28 -6q-7 -3 -13 -6.5t-10 -8.5zM1690 149q3 -3 6 -7t4 -9q1 -4 3 -9t2 -12q0 -14 -7 -28l-8 -12q-4 -6 -9 -9l-11 -9t-13 -6
q-7 -3 -15 -4.5t-14 -1.5q-8 0 -15.5 1.5t-16.5 4.5q-7 2 -12 6.5l-12 10.5q-4 2 -6 6l-4 8q-5 2 -6 12h1q1 1 5 3l1 1q1 1 3 2h4l2 1h12q3 0 4 -1q7 0 10 -3q4 -3 8 -5.5t6 -4.5q2 0 6 -1.5t10 -1.5q2 0 5 0.5t8 2.5q6 2 11 7q6 3 9 7t4.5 7t1.5 7q0 7 -6 11q-4 6 -9 6
q-2 4 -5.5 5t-5.5 3q-7 1 -15 6q-6 1 -10.5 2t-10.5 4q-7 4 -11.5 7t-8.5 7q-5 3 -8.5 7.5t-4.5 8.5q-6 12 -6 24q0 18 6 26q2 7 6 11l9 9q4 3 9.5 5.5t13.5 5.5q5 1 11 2t13 1q4 0 8.5 -1t9.5 -2q6 -2 9 -3.5t8 -3.5q4 -3 7.5 -6t6.5 -7q2 -2 6 -5.5t5 -6.5l-8 -5
q-2 -1 -5 -3t-4 -5h-18q-7 2 -7 3q-3 1 -6 4q-2 0 -3 0.5t-2 0.5q-5 1 -7 1q-8 0 -12 -1q-3 0 -4 -1t-5 -3q-2 -1 -6 -7q-1 -3 -1 -9t1 -6q3 -3 4 -4.5t2 -5.5q4 0 6.5 -0.5t6.5 -1.5q4 -2 9.5 -4.5t8.5 -3.5l8 -2q6 -4 11 -6t11 -6q9 -3 16 -14zM1104 127q2 6 3 12.5
t1 14.5q0 12 -4 25q-3 10 -7.5 14.5t-10.5 9.5q-3 5 -8.5 8.5t-12.5 6.5q-12 6 -28 6t-28 -6l-10.5 -6.5t-10.5 -8.5q-7 -5 -10 -9.5t-6 -14.5q-5 -5 -5.5 -11.5t-0.5 -13.5q0 -8 0.5 -14.5t5.5 -12.5q3 -9 6 -14.5t10 -9.5q5 -5 10.5 -8.5t10.5 -7.5q6 -3 13 -4.5t15 -1.5
q7 0 14 1.5t14 4.5q7 4 12.5 7.5t8.5 8.5q6 4 10.5 9.5t7.5 14.5zM2283 336q-6 -5 -11.5 -9t-12.5 -7q-6 -2 -12 -2.5t-13 -0.5q-9 0 -16.5 0.5t-13.5 2.5q-13 4 -23 16q-4 4 -7.5 9.5l-7.5 11.5l-4 15.5t-2 14.5q0 3 1 7.5t2 8.5t2.5 9.5t4.5 8.5q3 5 6 8.5t5 6.5
q5 2 8.5 5.5t7.5 5.5q5 3 9.5 4.5t7.5 3.5q6 0 9.5 1.5t10.5 1.5q3 0 7.5 -1.5t10.5 -1.5l9 -3.5t7 -4.5q4 -2 8.5 -5.5t6.5 -5.5l4.5 -6.5t4.5 -8.5q6 -7 8 -18q2 -4 3 -8.5t1 -7.5q0 -7 -1 -14.5t-5 -15.5q-1 -6 -5.5 -11.5t-9.5 -9.5zM2164 127q6 12 6 27q0 7 -2 13.5
t-4 11.5q-2 10 -5.5 14.5t-8.5 9.5q-9 10 -24 15q-5 4 -12 5t-16 1q-14 0 -27 -6q-6 -3 -11.5 -6.5t-10.5 -8.5t-9 -9.5t-8 -14.5q-1 -5 -2 -11.5t-1 -13.5q0 -8 1 -14.5l2 -12.5q7 -16 17 -24q5 -5 10.5 -8.5l11.5 -7.5q7 -3 14.5 -4.5t12.5 -1.5q9 0 16 1.5t12 4.5
l13.5 7.5t10.5 8.5q10 9 14 24zM1579 336q-12 9 -17 21q-6 14 -6 30q0 3 0.5 7.5t0.5 8.5q6 11 9 18q5 8 13 15q6 8 12 11q5 3 9.5 4.5t9.5 3.5q4 0 8 1.5t10 1.5q5 0 10.5 -1.5t10.5 -1.5q3 -2 7.5 -3.5t8.5 -4.5q3 -2 6.5 -5.5t6.5 -5.5q4 -3 5.5 -6.5t6.5 -8.5
q3 -7 7 -18q1 -4 2 -8.5t1 -7.5q0 -7 -1.5 -14.5t-5.5 -15.5q-2 -6 -6 -11.5t-9 -9.5q-5 -5 -10.5 -9t-13.5 -7t-26 -3q-8 0 -15 0.5t-12 2.5q-15 4 -22 16zM775 262h139v-38h-100v-57h82v-38h-82v-85h-39v218zM572 224h-60v-180h-42v180h-64v38h166v-38zM1188 864
q-19 9 -37.5 20.5t-34.5 25.5h322q-16 -14 -34.5 -25.5t-38.5 -20.5q-21 -6 -43.5 -11.5t-45.5 -5.5q-24 0 -45 5.5zM1365 1315q20 -8 38.5 -20t33.5 -24h-323q35 30 74 44q39 18 88 18t89 -18zM1389 262h165v-38h-65v-180h-39v180h-61v38zM560 605l-48 66q3 1 6 1.5t6 3.5
q7 3 8 10q3 2 5.5 5.5t3.5 7.5v23q0 4 -2 8q-4 7 -10 13q-4 9 -15 9q-2 3 -7 4.5t-9 1.5h-55v-153h22v63h24l39 -55q2 -4 7 -6q2 -2 4 -2h21zM801 721q5 -3 9 -8.5t6 -9.5q1 -5 2.5 -11t1.5 -13q0 -5 -1.5 -10.5t-2.5 -11.5q-2 -4 -6 -8.5t-9 -7.5q-2 -4 -6.5 -7t-9.5 -7
q-4 -2 -10.5 -3t-12.5 -1q-11 0 -23 4q-4 4 -8.5 7t-9.5 7q-2 3 -6 7.5t-6 8.5q-3 6 -4 11.5t-1 10.5q0 12 5 24q2 4 6 9.5t6 8.5q5 5 9.5 7.5t8.5 5.5q7 2 12.5 3t10.5 1q12 0 23 -4l9.5 -5.5t6.5 -7.5zM1169 605l-67 153h-21l-68 -153h13q8 0 10 2q1 2 2 3t4 3l10 26h79
l9 -26q3 -4 7 -6q1 -2 9 -2h13zM1931 721q3 -3 6.5 -8.5t5.5 -9.5q2 -5 3 -11t1 -13q0 -11 -4 -22q-2 -4 -5.5 -8.5t-6.5 -7.5q-5 -4 -9.5 -7t-8.5 -7q-11 -4 -23 -4q-6 0 -12 1t-10 3q-6 4 -10 7t-8 7q-4 3 -7 7.5t-4 8.5q-3 6 -4.5 11.5t-1.5 10.5q0 12 6 24q1 4 4 9.5
t7 8.5q4 5 8 7.5t10 5.5q9 4 22 4q7 0 11.5 -1t11.5 -3q4 -3 8.5 -5.5t9.5 -7.5zM295 690q7 12 7 19q0 5 -1.5 9.5t-5.5 11.5q0 2 -4 5l-6 7q-2 4 -5.5 7t-8.5 3q-3 3 -8.5 4.5t-10.5 1.5h-54v-153h19v57h35q5 0 10.5 0.5t8.5 3.5q10 4 14 9q3 3 6.5 7t3.5 8zM2126 758h-21
v-119q-2 2 -2.5 5t-2.5 5l-74 103l-5 5q-1 0 -4 0.5t-5 0.5h-16v-153h23v125h1v-4l1 -3l88 -118h17v153zM1579 407q-4 -5 -5.5 -11t-1.5 -9q0 -4 0.5 -8t1.5 -7q1 -7 7 -15q1 -2 3 -4.5t4 -5.5l5 -5q3 -3 8 -3q3 -3 6.5 -4.5t5.5 -2.5q4 -1 8 -1h14q6 0 8 1q3 1 6 2.5t8 4.5
q2 0 5 3l5 5q2 3 5 5.5t4 4.5q2 4 3 7.5t2 7.5q1 3 1.5 7t0.5 8q0 3 -1 9t-4 11q-1 6 -4.5 10t-6.5 9q-3 3 -8 6l-10 6q-4 0 -9.5 0.5t-11.5 0.5q-7 0 -11.5 -0.5t-10.5 -0.5q-4 -3 -9.5 -6t-8.5 -6l-5.5 -9t-3.5 -10zM2225 331h15q4 0 9 1q3 1 5.5 2.5t4.5 4.5q3 0 6.5 3
t7.5 5q2 3 3.5 5.5t4.5 4.5q1 4 2.5 7.5t1.5 7.5q1 3 1 7v8q0 3 -0.5 9t-0.5 11q-2 6 -6 10t-6 9q-6 3 -10.5 6t-8.5 6q-4 0 -10 0.5t-10 0.5q-7 0 -12 -0.5t-11 -0.5q-6 -3 -10 -6t-7 -6q-5 -5 -8 -9t-5 -10q-2 -5 -2 -11v-24q1 -4 2 -7.5t5 -7.5q1 -2 3 -4.5t5 -5.5l5 -5
q3 -3 5 -3q3 -3 6 -4.5t8 -2.5q3 -1 7 -1zM997 758h-19v-118l-2 4q-1 3 -1 5l-74 103q-4 0 -7 5q-2 0 -5 0.5t-5 0.5h-14v-153h21v125l2 -1l1 -2v-4l88 -118h15v153zM2114 381q-7 -2 -12 -4l44 -60h-11q-4 0 -8 2q-1 1 -2 1.5t-2 4.5l-39 52h-25v-60h-17v138h51
q3 0 6.5 -0.5t9.5 -2.5q3 -1 6 -3t4 -4q4 -3 5.5 -6.5t6.5 -7.5q0 -3 0.5 -7.5t0.5 -5.5q0 -5 -0.5 -8.5t-0.5 -6.5q-3 -4 -4.5 -8t-2.5 -5zM1343 381q-2 -2 -12 -4l47 -60h-9q-3 0 -6 0.5t-3 1.5q-2 1 -4 1.5t-3 4.5l-39 52h-25v-60h-15v138h51q3 0 6 -0.5t7 -2.5
q7 -2 15 -7q1 -3 3.5 -6.5t3.5 -7.5q2 -3 2 -8v-14q0 -3 -2 -6q0 -4 -1.5 -8t-3.5 -5l-5 -5q-2 -2 -7 -4zM2460 452q3 2 4 2.5t3 0.5h12v-138h-14v114q0 -1 -2 -3v-2q-4 -8 -7 -17t-7 -14l-5.5 -14.5t-7.5 -13.5q-2 -8 -4 -14t-5 -12l-7 -12.5t-5 -11.5h-15
q-9 12 -14.5 25.5l-11.5 27.5q-5 14 -11.5 28t-11.5 28v2q-3 0 -3 1v-112h-16v138h14q5 0 7 -3q2 -1 2.5 -1.5t0.5 -3.5l48 -108q0 -3 3 -3v-1l1 2q1 2 1 4q0 4 5 8l41 98q2 3 3 3.5t2 1.5zM411 758h-95v-153h95v19h-73v47h60v20h-60v45h73v22zM1723 758h-94v-153h94v19h-73
v47h60v20h-60v45h73v22zM1479 758h-20v-103q0 -3 -3 -8q-1 -7 -10 -12q-1 -2 -4.5 -4.5t-5.5 -5.5l-9 -2h-7q-11 0 -15 2q-6 3 -9.5 5.5t-4.5 4.5q-2 2 -4 5t-7 7q0 5 -1 8.5t-1 10.5v92h-20v-92q0 -7 0.5 -11t1.5 -8q0 -7 5 -14q5 -9 11 -13q2 -2 5.5 -5t7.5 -5
q2 -1 5.5 -2t7.5 -3q5 -1 8.5 -2t9.5 -1q4 0 7 1t10 2q3 2 6 3t7 2q7 5 12 10q5 3 6.5 5.5t3.5 7.5q1 3 3.5 6.5t3.5 7.5v111zM663 631q2 5 3 8.5t1 9.5q0 11 -4.5 19t-11.5 14q-2 1 -3.5 2.5t-5.5 3.5l-6 2q-1 1 -3.5 1t-2.5 3q-5 0 -7 3q-6 1 -8.5 2t-6.5 3q-6 2 -7 3
q-6 4 -6 6v16q1 2 3.5 3.5t2.5 3.5q1 0 3.5 1t3.5 1q4 1 6.5 1.5t5.5 0.5l2 -1q2 -1 4 -1q7 0 8 -5q2 -1 4 -1h4q9 0 13 4l5 2q-1 2 -3 3l-3 4q-3 3 -5.5 5t-6.5 4q-2 0 -4.5 1.5t-7.5 3.5q-4 1 -5.5 1.5t-4.5 0.5q-5 0 -10 -0.5t-8 -1.5q-6 -2 -8.5 -4t-6.5 -3
q-2 -4 -6 -7.5t-5 -6.5q-1 -4 -2.5 -7.5t-1.5 -9.5q0 -5 0.5 -9t3.5 -7q1 -4 4 -7.5t5 -5.5l7 -4.5t9 -3.5q3 -3 6 -4.5t7 -2.5q3 -2 6.5 -2t5.5 -1l6 -2q2 0 4 -2q3 -2 3.5 -3.5t2.5 -5.5q2 -2 2 -5v-10q0 -3 -2 -5q-2 -3 -2.5 -4.5t-3.5 -3.5q-2 -4 -5.5 -5t-4.5 -2
q-3 0 -6 -0.5t-6 -0.5q-4 0 -6.5 0.5t-4.5 0.5q-2 1 -5 2t-3 5l-3 2q-5 4 -12 4h-4q-1 0 -4 -2l-7 -2q0 -5 4 -5q0 -2 3 -4q0 -3 3 -4q0 -1 1 -3h2q8 -8 17 -10.5t19 -2.5q5 0 9.5 0.5t10.5 2.5q4 1 9.5 3t7.5 7q4 2 7.5 5t4.5 9zM1598 631q6 9 6 18q0 11 -4 19t-13 14
q-5 4 -6 6q-2 0 -4.5 0.5t-4.5 1.5q0 1 -3 1t-5 3h-3q-2 1 -4 3q-3 1 -5 2t-5 3q-8 2 -9 3q-4 2 -5 3.5t-2 2.5q0 2 -1 3.5t-1 4.5q0 4 4 8q1 3 5 7q2 0 3 1t6 1q1 2 9 2q1 0 3.5 -1t4.5 -1q2 -2 8 -5q7 -1 9 -1q6 0 9 4l6 2q-1 2 -3.5 3.5t-4.5 3.5q-1 3 -3.5 5t-5.5 4
q-4 0 -6 1.5t-6 3.5q-3 1 -6.5 1.5t-4.5 0.5q-5 0 -9.5 -0.5t-8.5 -1.5l-14 -7q-4 -4 -6 -7.5t-5 -6.5q-2 -4 -3.5 -7.5t-1.5 -9.5q0 -5 1.5 -9t3.5 -7q4 -8 9 -13l6.5 -4.5t6.5 -3.5q5 -3 9 -4.5t7 -2.5q4 -2 5.5 -2t5.5 -1q2 -1 5 -1.5t5 -2.5t4.5 -3.5t2.5 -5.5
q2 -2 2.5 -4.5t0.5 -5.5q0 -2 -0.5 -5t-2.5 -5q-1 -6 -7 -8q-5 -4 -6.5 -5t-3.5 -2q-5 0 -6.5 -0.5t-4.5 -0.5t-6.5 0.5t-5.5 0.5q-5 2 -10 7l-2 2q-5 4 -10 4h-5q-3 0 -4 -2l-6 -2q1 -2 1 -3.5t3 -1.5q0 -1 0.5 -2t0.5 -2l2 -2q1 -1 1 -2q5 -3 7 -3q6 -8 15 -10.5t19 -2.5
q5 0 10 0.5t11 2.5q3 1 7 3t9 7l5 5q3 3 5 9zM1741 317h-16v138h13q2 0 4.5 -0.5t4.5 -3.5l73 -102q2 -1 2 -4l2 -3v113h15v-138h-13l-82 114v3h-3v-117zM78 351q-4 4 -5.5 8t-2.5 8q-3 6 -3.5 10t-0.5 10q0 7 4 16q1 4 2.5 9.5t5.5 8.5l3.5 8.5t7.5 6.5q1 2 5 5.5t7 5.5
q6 3 9.5 4.5t7.5 3.5q4 0 9.5 1.5t11.5 1.5q7 0 13.5 -2t13.5 -5q8 -2 13.5 -5.5t9.5 -9.5q-2 -2 -4 -2v-3h-3q0 -1 -2 -1h-3q-6 0 -7 1q-4 2 -7.5 4.5t-7.5 2.5q-5 1 -8 1h-8q-6 0 -11.5 -0.5t-9.5 -0.5q-6 -3 -11 -6t-9 -6q-4 -5 -6.5 -9t-4.5 -10q-4 -5 -4.5 -11t-0.5 -9
q0 -8 3 -15q1 -4 2.5 -7.5t1.5 -7.5l4 -5q3 -2 5 -5q4 -2 7 -5t7 -3q2 -3 5.5 -4.5t7.5 -2.5q3 -1 6 -1h16q4 0 10 1q3 1 8.5 2.5t8.5 4.5v29h-14l-1 2q-2 1 -3 2t-3 2l-2 1q-1 2 -1 4l-1 1v4h40v-53q-3 -5 -5 -6t-6 -5q-5 -1 -12 -1q-6 -2 -13 -2h-35q-4 1 -7.5 2.5
t-9.5 5.5q-3 1 -7 4t-5 7q-6 3 -7.5 7t-3.5 8zM2374 758h-18q-5 0 -9 -4q-7 -4 -7 -8l-36 -47l-2 -1q0 -1 -2 -1l-1 2l-37 47q-3 5 -6 8q-4 4 -11 4h-17l57 -76l1 -3q0 -1 2 -1l1 -2v-2l1 -1v-68h23v68q1 0 1 3q1 0 2 3v3h1zM240 438v-43h55v-16h-55v-47h68v-15h-85v138h85
v-17h-68zM1171 438v-43h59v-16h-59v-47h68v-15h-83v138h83v-17h-68zM642 455v-85q0 -5 2 -8.5t5 -5.5q1 -6 3.5 -8.5t4.5 -6.5q1 -2 4.5 -4t5.5 -4q5 -2 9 -2h16q3 0 6 2q5 2 8 4t7 4q1 4 3.5 6.5t4.5 8.5q4 5 4 14v85h14v-85q0 -6 -1 -10.5t-3 -10.5q-1 -7 -4.5 -11
t-7.5 -7q-3 -5 -7.5 -8t-9.5 -4q-11 -2 -22 -2t-24 2q-3 1 -7 4t-9 8q-6 6 -11 18q-2 6 -4 10.5t-2 10.5v85h15zM2252 624h-66v134h-23v-153h89v19zM1270 624h-66v134h-21v-153h87v19zM1453 336q2 3 4 9q2 2 2.5 5.5t0.5 5.5q0 8 -1 11q-2 1 -3 3.5t-3 3.5q-3 3 -9 5
q-4 0 -6 1.5t-7 2.5q-3 1 -6.5 3t-4.5 3q-11 1 -15 8q-3 0 -5 3t-4 5v15q0 6 0.5 9.5t1.5 6.5q1 8 9 11l7 4q3 2 8 4q3 0 5.5 1.5t8.5 1.5q2 0 5.5 -1.5t4.5 -1.5q3 0 5 -1.5t5 -2.5t4.5 -2.5t1.5 -3.5q6 -1 7 -3.5t2 -3.5l-3 -2q-3 -2 -9 -2h-6q-4 3 -4 4h-9l-1 1h-3
q-7 0 -9 -1q-7 0 -7 -2q-7 -5 -7 -8q-3 0 -3 -8q0 -5 3 -6q0 -4 4 -7q1 -1 3.5 -2.5t3.5 -1.5q4 -3 6.5 -3.5t7.5 -2.5q1 0 3.5 -0.5t2.5 -1.5q2 0 4 -0.5t5 -4.5h2v-1h2q2 0 3 -1l2 -1q6 -4 8 -7t5 -6q2 -9 2 -18q0 -6 -0.5 -10t-4.5 -7q-1 -7 -10 -13q-2 -3 -6 -4.5
t-7 -2.5q-4 -2 -9 -2h-11q-8 0 -16 1.5t-15 7.5q-1 0 -2.5 2.5t-4.5 4.5q0 2 -1 4l-1 2l3 3q1 1 4 1h2q3 0 5 -1.5t5 -2.5q4 -3 6.5 -4.5t5.5 -2.5q1 -1 4 -1h5q9 0 11 1q7 0 13 4zM1070 317l-61 138h6q6 0 10 -3q1 -1 2 -1.5t3 -3.5l44 -104v-4q1 -3 2 -5v6q1 2 1 3
l13.5 26t11.5 26q4 15 10 27.5l12 24.5q1 3 3 3.5t2 1.5q3 2 4 2.5t4 0.5h8l-15.5 -34.5t-15.5 -33.5l-15 -36l-14 -34h-15zM532 438v-48h60v-13h-60v-60h-16v138h86v-17h-70zM1957 438v-48h57v-13h-57v-60h-16v138h85v-17h-69zM370 317v121h-46v17h106v-17h-46v-121h-14z
M785 455v-123h62v-15h-79v138h17zM271 730q2 -3 3 -6t3 -5q1 -4 1 -10v-5q0 -2 -1 -5q-2 -2 -3 -5t-3 -4q-3 -4 -9 -7q-5 -1 -10 -1h-35v54h35q7 0 10 -2q3 0 5.5 -2t3.5 -2zM878 455v-123h64v-15h-79v138h15zM1325 390q5 0 6 4q3 1 5 2t5 1l2 4q1 2 3 4q0 2 1 5t1 8
q0 1 -1 2.5t-1 5.5q-2 2 -3 3.5t-2 4.5q-3 0 -5 1.5t-5 2.5h-42v-48h36zM2102 394q1 1 3 2t4 1q5 6 5 8q1 5 1 13q0 3 -1 8q0 2 -5 8q-2 0 -4 1.5t-3 2.5h-43v-48h34q5 0 9 4zM519 703q0 -1 -5 -8q-2 -1 -3 -2.5t-4 -2.5q-2 -2 -9 -2h-33v48h33q4 0 9 -2q3 0 4 -1.5t3 -2.5
q3 -5 5 -9q3 -2 3 -10q0 -6 -3 -8zM684 129l-27 68q0 1 -1 3t-1 3q0 4 -1 6v-6q0 -1 -1.5 -3t-1.5 -3l-28 -68h61zM1524 455v-138h-16v138h16zM1091 728q1 -2 1 -5l29 -64h-60l28 64q0 3 1 4v2zM1756 81q5 0 6 -6q1 -1 1 -5v-4q0 -6 -1 -9q-1 -5 -6 -9q-3 -1 -7 -4
q-1 -1 -3.5 -1.5t-5.5 -0.5q-2 0 -5 0.5t-4 1.5q-2 1 -4 2.5t-4 1.5q-1 2 -2.5 4t-4.5 5q-1 3 -1 9v4q0 4 1 5l4 4q2 2 3 2q5 6 8 6q1 3 4 3.5t5 0.5q3 0 5.5 -0.5t3.5 -3.5q4 0 7 -6z" />
    <glyph glyph-name="eight" unicode="8" 
d="M2479 1091v-585h-2405v585h912q0 31 4.5 59.5t18.5 54.5q12 27 27 51t37 43q38 40 92 61q26 13 54 18t57 5q33 0 61.5 -6t53.5 -18q29 -13 52.5 -29t42.5 -35q36 -37 62 -94q19 -54 19 -110h912zM1030 1193q-21 -47 -21 -102q0 -56 21 -103q11 -24 25 -45.5t31 -41.5
q18 -18 39.5 -32.5t45.5 -24.5q48 -23 105 -23q30 0 55.5 5t48.5 15q25 11 45.5 25t39.5 33q19 18 33.5 39.5t25.5 44.5q23 53 23 108q0 24 -4.5 47.5t-13.5 44.5q-13 40 -42 75q-14 17 -30 30.5t-33 25.5l-38.5 19.5t-39.5 15.5q-15 5 -32.5 7.5t-37.5 2.5q-29 0 -55.5 -6
t-51.5 -18q-48 -18 -84 -57q-17 -18 -30.5 -40t-24.5 -45zM1141 935l315 319q30 -39 46 -80t16 -83q0 -22 -3.5 -43.5t-11.5 -41.5q-8 -18 -18 -35.5t-23 -35.5h-321zM1094 928q-27 35 -44 75q-8 19 -11 42t-3 46q0 22 3 42t11 40q5 20 15.5 37t23.5 34h321zM1134 207
q3 -5 5 -11t6 -14q2 -7 2 -14v-31q0 -7 -2 -13q-4 -7 -6 -14t-5 -13l-8.5 -11t-9.5 -11q-7 -5 -11.5 -9.5t-11.5 -7.5q-5 -6 -12 -8t-13 -5q-9 -1 -16.5 -2t-14.5 -1q-11 0 -21.5 2.5t-21.5 5.5q-12 5 -20 11t-16 14q-15 16 -23 35q-4 11 -6 21.5t-2 22.5q0 7 0.5 14t2.5 14
q4 16 12 25q4 8 8 13t8 11q6 5 11.5 9l12.5 9l11.5 5.5t15.5 5.5q5 1 12 2t16 1q7 0 14.5 -1t16.5 -2q6 -3 13 -5.5t12 -5.5q7 -5 11.5 -9t11.5 -9l9.5 -11t8.5 -13zM2195 207q3 -5 6 -11t5 -14q3 -7 3 -14v-31q0 -7 -3 -13q-2 -7 -5 -14t-6 -13q-6 -11 -16 -22l-13 -9.5
t-11 -7.5q-7 -6 -13.5 -8t-14.5 -5q-6 -1 -13 -2t-16 -1q-21 0 -43 8q-9 5 -17.5 11t-16.5 14q-7 7 -13.5 15.5t-9.5 19.5q-5 11 -7 21.5t-2 22.5q0 7 1 14t1 14q3 8 6.5 14l6.5 11q3 8 7 13t10 11q5 5 10.5 9l12.5 9q5 3 12 5.5t13 5.5q9 1 16 2t13 1q9 0 16 -1t13 -2
l14.5 -5.5t13.5 -5.5q5 -5 11 -9l13 -9q3 -6 8.5 -11t7.5 -13zM2433 260q1 0 2 1t6 1h38v-218h-38v159q-2 -1 -2.5 -3.5t-2.5 -6.5q-1 -3 -1 -5.5t-1 -5.5l-14.5 -34.5t-15.5 -33.5q-5 -17 -12 -34t-14 -36h-38l-55 138q-3 4 -3 11q-1 3 -3 4l-1 1v-154h-41v218h38
q6 0 7.5 -1t2.5 -1q3 -2 4 -2t3 -1l7 -5q1 -2 3 -4t2 -4q5 -16 12 -32l14 -33q6 -17 12.5 -33.5t13.5 -31.5v-11q2 0 3 -4q0 4 2 4v5q0 2 0.5 3.5t0.5 2.5l8 15l45 115q0 2 1 4l2 4q1 2 4 3t3 2q2 1 4 1t4 2zM1330 262h39v-218h-38l-101 147l-3 1l-1 2q-3 4 -3 7q-4 1 -4 4
q-1 1 -1.5 2t-2.5 2v-165h-40v218h36q4 0 7.5 -1t4.5 -3q4 -1 6 -2t4 -3l22 -32q11 -16 21 -34q14 -14 24.5 -29.5t24.5 -30.5q0 -3 1 -5.5t2 -6.5q0 -1 1 -3t1 -4v154zM672 262l94 -218h-24q-9 0 -17 4q-3 2 -4.5 6.5t-5.5 8.5l-12 28h-100l-11 -28q-1 -4 -2 -5t-3 -1
q-1 -5 -3 -6l-4 -3q-2 0 -3.5 -1.5t-4.5 -1.5q0 -1 -3 -1h-28l95 218h36zM260 262h139v-38h-99v-50h80v-40h-80v-53h99v-37h-139v218zM1966 659q1 7 1 11v22q0 6 -1 10q-3 9 -9 19q-4 6 -14 15q-2 3 -5.5 6t-7.5 8q-5 1 -10 3l-10 4q-5 1 -9 1.5t-11 0.5q-6 0 -11 -0.5
t-9 -1.5q-12 -4 -20 -7q-4 -5 -7.5 -8t-7.5 -6q-4 -4 -7 -7.5t-6 -7.5q-2 -6 -4.5 -10t-3.5 -9q-3 -10 -3 -23q0 -6 1.5 -14t5.5 -14q5 -16 17 -27q5 -5 11 -9t13 -5q13 -6 31 -6h11q4 0 9 1q5 2 10 3.5t10 4.5q4 4 7.5 6t5.5 5q10 7 14 17q6 9 9 18zM838 659q1 7 2 11t1 9
q0 13 -3 23q-1 5 -3.5 9t-4.5 10q-4 6 -13 15q-3 3 -7 6t-10 8q-3 1 -7 3t-10 4q-5 1 -10 1.5t-11 0.5q-5 0 -10 -0.5t-10 -1.5q-6 -2 -10.5 -4t-8.5 -3q-4 -5 -8 -8t-9 -6q-3 -4 -6 -7.5t-5 -7.5q-4 -6 -5 -10t-3 -9q-3 -10 -3 -23q0 -6 2 -14t4 -14q3 -8 7.5 -14.5
l8.5 -12.5q7 -5 13.5 -9t14.5 -5q12 -6 28 -6h11q5 0 10 1q11 4 17 8q13 6 17 11q6 7 13 17q2 5 4.5 9.5t3.5 8.5zM74 262h159v-24q0 -2 -2 -4q0 -5 -1.5 -6.5t-4.5 -3.5l-106 -145h2l1 2h109v-37h-165v13q0 8 1 11q0 2 6 8l1 4l2 4q2 2 3.5 4.5t2.5 5.5l95 130h-103v38z
M1839 203q-8 -9 -15 -24q-2 -5 -4 -11.5t-2 -13.5q0 -8 2 -14.5l4 -12.5q3 -9 6.5 -14.5t8.5 -9.5q4 -5 10 -8.5l13 -7.5q8 -3 14.5 -4.5t13.5 -1.5t11 1.5t9 1.5q5 2 10 5t10 7q4 1 7 2h13q4 0 7 -1q6 -2 9 -6l7 -10q-6 -8 -16 -15q-6 -3 -11 -6t-11 -6q-5 -4 -10.5 -5.5
t-11.5 -3.5t-11 -2.5t-12 -0.5q-13 0 -23.5 2.5t-20.5 5.5q-21 10 -35 25q-16 16 -24 35q-4 11 -6.5 21.5t-2.5 22.5q0 7 1 14t3 14q1 8 3.5 14t7.5 11q5 8 8.5 13t9.5 11q6 5 11.5 9l12.5 9q5 3 11 5.5t15 5.5q6 1 13.5 2t15.5 1h12q5 0 11 -3q6 -2 11.5 -3.5t10.5 -3.5
q6 -3 11 -6t11 -7q10 -9 16 -16l-7 -9q-3 -3 -5 -4.5t-4 -3.5h-14q-3 0 -6.5 0.5t-6.5 2.5q-5 4 -10 6.5t-10 5.5q-5 1 -9 1.5t-11 0.5q-16 0 -28 -6q-7 -3 -13 -6.5t-10 -8.5zM1690 149q3 -3 6 -7t4 -9q1 -4 3 -9t2 -12q0 -14 -7 -28l-8 -12q-4 -6 -9 -9l-11 -9t-13 -6
q-7 -3 -15 -4.5t-14 -1.5q-8 0 -15.5 1.5t-16.5 4.5q-7 2 -12 6.5l-12 10.5q-4 2 -6 6l-4 8q-5 2 -6 12h1q1 1 5 3l1 1q1 1 3 2h4l2 1h12q3 0 4 -1q7 0 10 -3q4 -3 8 -5.5t6 -4.5q2 0 6 -1.5t10 -1.5q2 0 5 0.5t8 2.5q6 2 11 7q6 3 9 7t4.5 7t1.5 7q0 7 -6 11q-4 6 -9 6
q-2 4 -5.5 5t-5.5 3q-7 1 -15 6q-6 1 -10.5 2t-10.5 4q-7 4 -11.5 7t-8.5 7q-5 3 -8.5 7.5t-4.5 8.5q-6 12 -6 24q0 18 6 26q2 7 6 11l9 9q4 3 9.5 5.5t13.5 5.5q5 1 11 2t13 1q4 0 8.5 -1t9.5 -2q6 -2 9 -3.5t8 -3.5q4 -3 7.5 -6t6.5 -7q2 -2 6 -5.5t5 -6.5l-8 -5
q-2 -1 -5 -3t-4 -5h-18q-7 2 -7 3q-3 1 -6 4q-2 0 -3 0.5t-2 0.5q-5 1 -7 1q-8 0 -12 -1q-3 0 -4 -1t-5 -3q-2 -1 -6 -7q-1 -3 -1 -9t1 -6q3 -3 4 -4.5t2 -5.5q4 0 6.5 -0.5t6.5 -1.5q4 -2 9.5 -4.5t8.5 -3.5l8 -2q6 -4 11 -6t11 -6q9 -3 16 -14zM1104 127q2 6 3 12.5
t1 14.5q0 12 -4 25q-3 10 -7.5 14.5t-10.5 9.5q-3 5 -8.5 8.5t-12.5 6.5q-12 6 -28 6t-28 -6l-10.5 -6.5t-10.5 -8.5q-7 -5 -10 -9.5t-6 -14.5q-5 -5 -5.5 -11.5t-0.5 -13.5q0 -8 0.5 -14.5t5.5 -12.5q3 -9 6 -14.5t10 -9.5q5 -5 10.5 -8.5t10.5 -7.5q6 -3 13 -4.5t15 -1.5
q7 0 14 1.5t14 4.5q7 4 12.5 7.5t8.5 8.5q6 4 10.5 9.5t7.5 14.5zM2283 336q-6 -5 -11.5 -9t-12.5 -7q-6 -2 -12 -2.5t-13 -0.5q-9 0 -16.5 0.5t-13.5 2.5q-13 4 -23 16q-4 4 -7.5 9.5l-7.5 11.5l-4 15.5t-2 14.5q0 3 1 7.5t2 8.5t2.5 9.5t4.5 8.5q3 5 6 8.5t5 6.5
q5 2 8.5 5.5t7.5 5.5q5 3 9.5 4.5t7.5 3.5q6 0 9.5 1.5t10.5 1.5q3 0 7.5 -1.5t10.5 -1.5l9 -3.5t7 -4.5q4 -2 8.5 -5.5t6.5 -5.5l4.5 -6.5t4.5 -8.5q6 -7 8 -18q2 -4 3 -8.5t1 -7.5q0 -7 -1 -14.5t-5 -15.5q-1 -6 -5.5 -11.5t-9.5 -9.5zM2164 127q6 12 6 27q0 7 -2 13.5
t-4 11.5q-2 10 -5.5 14.5t-8.5 9.5q-9 10 -24 15q-5 4 -12 5t-16 1q-14 0 -27 -6q-6 -3 -11.5 -6.5t-10.5 -8.5t-9 -9.5t-8 -14.5q-1 -5 -2 -11.5t-1 -13.5q0 -8 1 -14.5l2 -12.5q7 -16 17 -24q5 -5 10.5 -8.5l11.5 -7.5q7 -3 14.5 -4.5t12.5 -1.5q9 0 16 1.5t12 4.5
l13.5 7.5t10.5 8.5q10 9 14 24zM1579 336q-12 9 -17 21q-6 14 -6 30q0 3 0.5 7.5t0.5 8.5q6 11 9 18q5 8 13 15q6 8 12 11q5 3 9.5 4.5t9.5 3.5q4 0 8 1.5t10 1.5q5 0 10.5 -1.5t10.5 -1.5q3 -2 7.5 -3.5t8.5 -4.5q3 -2 6.5 -5.5t6.5 -5.5q4 -3 5.5 -6.5t6.5 -8.5
q3 -7 7 -18q1 -4 2 -8.5t1 -7.5q0 -7 -1.5 -14.5t-5.5 -15.5q-2 -6 -6 -11.5t-9 -9.5q-5 -5 -10.5 -9t-13.5 -7t-26 -3q-8 0 -15 0.5t-12 2.5q-15 4 -22 16zM775 262h139v-38h-100v-57h82v-38h-82v-85h-39v218zM572 224h-60v-180h-42v180h-64v38h166v-38zM1188 864
q-19 9 -37.5 20.5t-34.5 25.5h322q-16 -14 -34.5 -25.5t-38.5 -20.5q-21 -6 -43.5 -11.5t-45.5 -5.5q-24 0 -45 5.5zM1365 1315q20 -8 38.5 -20t33.5 -24h-323q35 30 74 44q39 18 88 18t89 -18zM1389 262h165v-38h-65v-180h-39v180h-61v38zM560 605l-48 66q3 1 6 1.5t6 3.5
q7 3 8 10q3 2 5.5 5.5t3.5 7.5v23q0 4 -2 8q-4 7 -10 13q-4 9 -15 9q-2 3 -7 4.5t-9 1.5h-55v-153h22v63h24l39 -55q2 -4 7 -6q2 -2 4 -2h21zM801 721q5 -3 9 -8.5t6 -9.5q1 -5 2.5 -11t1.5 -13q0 -5 -1.5 -10.5t-2.5 -11.5q-2 -4 -6 -8.5t-9 -7.5q-2 -4 -6.5 -7t-9.5 -7
q-4 -2 -10.5 -3t-12.5 -1q-11 0 -23 4q-4 4 -8.5 7t-9.5 7q-2 3 -6 7.5t-6 8.5q-3 6 -4 11.5t-1 10.5q0 12 5 24q2 4 6 9.5t6 8.5q5 5 9.5 7.5t8.5 5.5q7 2 12.5 3t10.5 1q12 0 23 -4l9.5 -5.5t6.5 -7.5zM1169 605l-67 153h-21l-68 -153h13q8 0 10 2q1 2 2 3t4 3l10 26h79
l9 -26q3 -4 7 -6q1 -2 9 -2h13zM1931 721q3 -3 6.5 -8.5t5.5 -9.5q2 -5 3 -11t1 -13q0 -11 -4 -22q-2 -4 -5.5 -8.5t-6.5 -7.5q-5 -4 -9.5 -7t-8.5 -7q-11 -4 -23 -4q-6 0 -12 1t-10 3q-6 4 -10 7t-8 7q-4 3 -7 7.5t-4 8.5q-3 6 -4.5 11.5t-1.5 10.5q0 12 6 24q1 4 4 9.5
t7 8.5q4 5 8 7.5t10 5.5q9 4 22 4q7 0 11.5 -1t11.5 -3q4 -3 8.5 -5.5t9.5 -7.5zM295 690q7 12 7 19q0 5 -1.5 9.5t-5.5 11.5q0 2 -4 5l-6 7q-2 4 -5.5 7t-8.5 3q-3 3 -8.5 4.5t-10.5 1.5h-54v-153h19v57h35q5 0 10.5 0.5t8.5 3.5q10 4 14 9q3 3 6.5 7t3.5 8zM2126 758h-21
v-119q-2 2 -2.5 5t-2.5 5l-74 103l-5 5q-1 0 -4 0.5t-5 0.5h-16v-153h23v125h1v-4l1 -3l88 -118h17v153zM1579 407q-4 -5 -5.5 -11t-1.5 -9q0 -4 0.5 -8t1.5 -7q1 -7 7 -15q1 -2 3 -4.5t4 -5.5l5 -5q3 -3 8 -3q3 -3 6.5 -4.5t5.5 -2.5q4 -1 8 -1h14q6 0 8 1q3 1 6 2.5t8 4.5
q2 0 5 3l5 5q2 3 5 5.5t4 4.5q2 4 3 7.5t2 7.5q1 3 1.5 7t0.5 8q0 3 -1 9t-4 11q-1 6 -4.5 10t-6.5 9q-3 3 -8 6l-10 6q-4 0 -9.5 0.5t-11.5 0.5q-7 0 -11.5 -0.5t-10.5 -0.5q-4 -3 -9.5 -6t-8.5 -6l-5.5 -9t-3.5 -10zM2225 331h15q4 0 9 1q3 1 5.5 2.5t4.5 4.5q3 0 6.5 3
t7.5 5q2 3 3.5 5.5t4.5 4.5q1 4 2.5 7.5t1.5 7.5q1 3 1 7v8q0 3 -0.5 9t-0.5 11q-2 6 -6 10t-6 9q-6 3 -10.5 6t-8.5 6q-4 0 -10 0.5t-10 0.5q-7 0 -12 -0.5t-11 -0.5q-6 -3 -10 -6t-7 -6q-5 -5 -8 -9t-5 -10q-2 -5 -2 -11v-24q1 -4 2 -7.5t5 -7.5q1 -2 3 -4.5t5 -5.5l5 -5
q3 -3 5 -3q3 -3 6 -4.5t8 -2.5q3 -1 7 -1zM997 758h-19v-118l-2 4q-1 3 -1 5l-74 103q-4 0 -7 5q-2 0 -5 0.5t-5 0.5h-14v-153h21v125l2 -1l1 -2v-4l88 -118h15v153zM2114 381q-7 -2 -12 -4l44 -60h-11q-4 0 -8 2q-1 1 -2 1.5t-2 4.5l-39 52h-25v-60h-17v138h51
q3 0 6.5 -0.5t9.5 -2.5q3 -1 6 -3t4 -4q4 -3 5.5 -6.5t6.5 -7.5q0 -3 0.5 -7.5t0.5 -5.5q0 -5 -0.5 -8.5t-0.5 -6.5q-3 -4 -4.5 -8t-2.5 -5zM1343 381q-2 -2 -12 -4l47 -60h-9q-3 0 -6 0.5t-3 1.5q-2 1 -4 1.5t-3 4.5l-39 52h-25v-60h-15v138h51q3 0 6 -0.5t7 -2.5
q7 -2 15 -7q1 -3 3.5 -6.5t3.5 -7.5q2 -3 2 -8v-14q0 -3 -2 -6q0 -4 -1.5 -8t-3.5 -5l-5 -5q-2 -2 -7 -4zM2460 452q3 2 4 2.5t3 0.5h12v-138h-14v114q0 -1 -2 -3v-2q-4 -8 -7 -17t-7 -14l-5.5 -14.5t-7.5 -13.5q-2 -8 -4 -14t-5 -12l-7 -12.5t-5 -11.5h-15
q-9 12 -14.5 25.5l-11.5 27.5q-5 14 -11.5 28t-11.5 28v2q-3 0 -3 1v-112h-16v138h14q5 0 7 -3q2 -1 2.5 -1.5t0.5 -3.5l48 -108q0 -3 3 -3v-1l1 2q1 2 1 4q0 4 5 8l41 98q2 3 3 3.5t2 1.5zM411 758h-95v-153h95v19h-73v47h60v20h-60v45h73v22zM1723 758h-94v-153h94v19h-73
v47h60v20h-60v45h73v22zM1479 758h-20v-103q0 -3 -3 -8q-1 -7 -10 -12q-1 -2 -4.5 -4.5t-5.5 -5.5l-9 -2h-7q-11 0 -15 2q-6 3 -9.5 5.5t-4.5 4.5q-2 2 -4 5t-7 7q0 5 -1 8.5t-1 10.5v92h-20v-92q0 -7 0.5 -11t1.5 -8q0 -7 5 -14q5 -9 11 -13q2 -2 5.5 -5t7.5 -5
q2 -1 5.5 -2t7.5 -3q5 -1 8.5 -2t9.5 -1q4 0 7 1t10 2q3 2 6 3t7 2q7 5 12 10q5 3 6.5 5.5t3.5 7.5q1 3 3.5 6.5t3.5 7.5v111zM663 631q2 5 3 8.5t1 9.5q0 11 -4.5 19t-11.5 14q-2 1 -3.5 2.5t-5.5 3.5l-6 2q-1 1 -3.5 1t-2.5 3q-5 0 -7 3q-6 1 -8.5 2t-6.5 3q-6 2 -7 3
q-6 4 -6 6v16q1 2 3.5 3.5t2.5 3.5q1 0 3.5 1t3.5 1q4 1 6.5 1.5t5.5 0.5l2 -1q2 -1 4 -1q7 0 8 -5q2 -1 4 -1h4q9 0 13 4l5 2q-1 2 -3 3l-3 4q-3 3 -5.5 5t-6.5 4q-2 0 -4.5 1.5t-7.5 3.5q-4 1 -5.5 1.5t-4.5 0.5q-5 0 -10 -0.5t-8 -1.5q-6 -2 -8.5 -4t-6.5 -3
q-2 -4 -6 -7.5t-5 -6.5q-1 -4 -2.5 -7.5t-1.5 -9.5q0 -5 0.5 -9t3.5 -7q1 -4 4 -7.5t5 -5.5l7 -4.5t9 -3.5q3 -3 6 -4.5t7 -2.5q3 -2 6.5 -2t5.5 -1l6 -2q2 0 4 -2q3 -2 3.5 -3.5t2.5 -5.5q2 -2 2 -5v-10q0 -3 -2 -5q-2 -3 -2.5 -4.5t-3.5 -3.5q-2 -4 -5.5 -5t-4.5 -2
q-3 0 -6 -0.5t-6 -0.5q-4 0 -6.5 0.5t-4.5 0.5q-2 1 -5 2t-3 5l-3 2q-5 4 -12 4h-4q-1 0 -4 -2l-7 -2q0 -5 4 -5q0 -2 3 -4q0 -3 3 -4q0 -1 1 -3h2q8 -8 17 -10.5t19 -2.5q5 0 9.5 0.5t10.5 2.5q4 1 9.5 3t7.5 7q4 2 7.5 5t4.5 9zM1598 631q6 9 6 18q0 11 -4 19t-13 14
q-5 4 -6 6q-2 0 -4.5 0.5t-4.5 1.5q0 1 -3 1t-5 3h-3q-2 1 -4 3q-3 1 -5 2t-5 3q-8 2 -9 3q-4 2 -5 3.5t-2 2.5q0 2 -1 3.5t-1 4.5q0 4 4 8q1 3 5 7q2 0 3 1t6 1q1 2 9 2q1 0 3.5 -1t4.5 -1q2 -2 8 -5q7 -1 9 -1q6 0 9 4l6 2q-1 2 -3.5 3.5t-4.5 3.5q-1 3 -3.5 5t-5.5 4
q-4 0 -6 1.5t-6 3.5q-3 1 -6.5 1.5t-4.5 0.5q-5 0 -9.5 -0.5t-8.5 -1.5l-14 -7q-4 -4 -6 -7.5t-5 -6.5q-2 -4 -3.5 -7.5t-1.5 -9.5q0 -5 1.5 -9t3.5 -7q4 -8 9 -13l6.5 -4.5t6.5 -3.5q5 -3 9 -4.5t7 -2.5q4 -2 5.5 -2t5.5 -1q2 -1 5 -1.5t5 -2.5t4.5 -3.5t2.5 -5.5
q2 -2 2.5 -4.5t0.5 -5.5q0 -2 -0.5 -5t-2.5 -5q-1 -6 -7 -8q-5 -4 -6.5 -5t-3.5 -2q-5 0 -6.5 -0.5t-4.5 -0.5t-6.5 0.5t-5.5 0.5q-5 2 -10 7l-2 2q-5 4 -10 4h-5q-3 0 -4 -2l-6 -2q1 -2 1 -3.5t3 -1.5q0 -1 0.5 -2t0.5 -2l2 -2q1 -1 1 -2q5 -3 7 -3q6 -8 15 -10.5t19 -2.5
q5 0 10 0.5t11 2.5q3 1 7 3t9 7l5 5q3 3 5 9zM1741 317h-16v138h13q2 0 4.5 -0.5t4.5 -3.5l73 -102q2 -1 2 -4l2 -3v113h15v-138h-13l-82 114v3h-3v-117zM78 351q-4 4 -5.5 8t-2.5 8q-3 6 -3.5 10t-0.5 10q0 7 4 16q1 4 2.5 9.5t5.5 8.5l3.5 8.5t7.5 6.5q1 2 5 5.5t7 5.5
q6 3 9.5 4.5t7.5 3.5q4 0 9.5 1.5t11.5 1.5q7 0 13.5 -2t13.5 -5q8 -2 13.5 -5.5t9.5 -9.5q-2 -2 -4 -2v-3h-3q0 -1 -2 -1h-3q-6 0 -7 1q-4 2 -7.5 4.5t-7.5 2.5q-5 1 -8 1h-8q-6 0 -11.5 -0.5t-9.5 -0.5q-6 -3 -11 -6t-9 -6q-4 -5 -6.5 -9t-4.5 -10q-4 -5 -4.5 -11t-0.5 -9
q0 -8 3 -15q1 -4 2.5 -7.5t1.5 -7.5l4 -5q3 -2 5 -5q4 -2 7 -5t7 -3q2 -3 5.5 -4.5t7.5 -2.5q3 -1 6 -1h16q4 0 10 1q3 1 8.5 2.5t8.5 4.5v29h-14l-1 2q-2 1 -3 2t-3 2l-2 1q-1 2 -1 4l-1 1v4h40v-53q-3 -5 -5 -6t-6 -5q-5 -1 -12 -1q-6 -2 -13 -2h-35q-4 1 -7.5 2.5
t-9.5 5.5q-3 1 -7 4t-5 7q-6 3 -7.5 7t-3.5 8zM2374 758h-18q-5 0 -9 -4q-7 -4 -7 -8l-36 -47l-2 -1q0 -1 -2 -1l-1 2l-37 47q-3 5 -6 8q-4 4 -11 4h-17l57 -76l1 -3q0 -1 2 -1l1 -2v-2l1 -1v-68h23v68q1 0 1 3q1 0 2 3v3h1zM240 438v-43h55v-16h-55v-47h68v-15h-85v138h85
v-17h-68zM1171 438v-43h59v-16h-59v-47h68v-15h-83v138h83v-17h-68zM642 455v-85q0 -5 2 -8.5t5 -5.5q1 -6 3.5 -8.5t4.5 -6.5q1 -2 4.5 -4t5.5 -4q5 -2 9 -2h16q3 0 6 2q5 2 8 4t7 4q1 4 3.5 6.5t4.5 8.5q4 5 4 14v85h14v-85q0 -6 -1 -10.5t-3 -10.5q-1 -7 -4.5 -11
t-7.5 -7q-3 -5 -7.5 -8t-9.5 -4q-11 -2 -22 -2t-24 2q-3 1 -7 4t-9 8q-6 6 -11 18q-2 6 -4 10.5t-2 10.5v85h15zM2252 624h-66v134h-23v-153h89v19zM1270 624h-66v134h-21v-153h87v19zM1453 336q2 3 4 9q2 2 2.5 5.5t0.5 5.5q0 8 -1 11q-2 1 -3 3.5t-3 3.5q-3 3 -9 5
q-4 0 -6 1.5t-7 2.5q-3 1 -6.5 3t-4.5 3q-11 1 -15 8q-3 0 -5 3t-4 5v15q0 6 0.5 9.5t1.5 6.5q1 8 9 11l7 4q3 2 8 4q3 0 5.5 1.5t8.5 1.5q2 0 5.5 -1.5t4.5 -1.5q3 0 5 -1.5t5 -2.5t4.5 -2.5t1.5 -3.5q6 -1 7 -3.5t2 -3.5l-3 -2q-3 -2 -9 -2h-6q-4 3 -4 4h-9l-1 1h-3
q-7 0 -9 -1q-7 0 -7 -2q-7 -5 -7 -8q-3 0 -3 -8q0 -5 3 -6q0 -4 4 -7q1 -1 3.5 -2.5t3.5 -1.5q4 -3 6.5 -3.5t7.5 -2.5q1 0 3.5 -0.5t2.5 -1.5q2 0 4 -0.5t5 -4.5h2v-1h2q2 0 3 -1l2 -1q6 -4 8 -7t5 -6q2 -9 2 -18q0 -6 -0.5 -10t-4.5 -7q-1 -7 -10 -13q-2 -3 -6 -4.5
t-7 -2.5q-4 -2 -9 -2h-11q-8 0 -16 1.5t-15 7.5q-1 0 -2.5 2.5t-4.5 4.5q0 2 -1 4l-1 2l3 3q1 1 4 1h2q3 0 5 -1.5t5 -2.5q4 -3 6.5 -4.5t5.5 -2.5q1 -1 4 -1h5q9 0 11 1q7 0 13 4zM1070 317l-61 138h6q6 0 10 -3q1 -1 2 -1.5t3 -3.5l44 -104v-4q1 -3 2 -5v6q1 2 1 3
l13.5 26t11.5 26q4 15 10 27.5l12 24.5q1 3 3 3.5t2 1.5q3 2 4 2.5t4 0.5h8l-15.5 -34.5t-15.5 -33.5l-15 -36l-14 -34h-15zM532 438v-48h60v-13h-60v-60h-16v138h86v-17h-70zM1957 438v-48h57v-13h-57v-60h-16v138h85v-17h-69zM370 317v121h-46v17h106v-17h-46v-121h-14z
M785 455v-123h62v-15h-79v138h17zM271 730q2 -3 3 -6t3 -5q1 -4 1 -10v-5q0 -2 -1 -5q-2 -2 -3 -5t-3 -4q-3 -4 -9 -7q-5 -1 -10 -1h-35v54h35q7 0 10 -2q3 0 5.5 -2t3.5 -2zM878 455v-123h64v-15h-79v138h15zM1325 390q5 0 6 4q3 1 5 2t5 1l2 4q1 2 3 4q0 2 1 5t1 8
q0 1 -1 2.5t-1 5.5q-2 2 -3 3.5t-2 4.5q-3 0 -5 1.5t-5 2.5h-42v-48h36zM2102 394q1 1 3 2t4 1q5 6 5 8q1 5 1 13q0 3 -1 8q0 2 -5 8q-2 0 -4 1.5t-3 2.5h-43v-48h34q5 0 9 4zM519 703q0 -1 -5 -8q-2 -1 -3 -2.5t-4 -2.5q-2 -2 -9 -2h-33v48h33q4 0 9 -2q3 0 4 -1.5t3 -2.5
q3 -5 5 -9q3 -2 3 -10q0 -6 -3 -8zM684 129l-27 68q0 1 -1 3t-1 3q0 4 -1 6v-6q0 -1 -1.5 -3t-1.5 -3l-28 -68h61zM1524 455v-138h-16v138h16zM1091 728q1 -2 1 -5l29 -64h-60l28 64q0 3 1 4v2zM1756 81q5 0 6 -6q1 -1 1 -5v-4q0 -6 -1 -9q-1 -5 -6 -9q-3 -1 -7 -4
q-1 -1 -3.5 -1.5t-5.5 -0.5q-2 0 -5 0.5t-4 1.5q-2 1 -4 2.5t-4 1.5q-1 2 -2.5 4t-4.5 5q-1 3 -1 9v4q0 4 1 5l4 4q2 2 3 2q5 6 8 6q1 3 4 3.5t5 0.5q3 0 5.5 -0.5t3.5 -3.5q4 0 7 -6z" />
    <glyph glyph-name="nine" unicode="9" 
d="M2479 1091v-585h-2405v585h912q0 31 4.5 59.5t18.5 54.5q12 27 27 51t37 43q38 40 92 61q26 13 54 18t57 5q33 0 61.5 -6t53.5 -18q29 -13 52.5 -29t42.5 -35q36 -37 62 -94q19 -54 19 -110h912zM1030 1193q-21 -47 -21 -102q0 -56 21 -103q11 -24 25 -45.5t31 -41.5
q18 -18 39.5 -32.5t45.5 -24.5q48 -23 105 -23q30 0 55.5 5t48.5 15q25 11 45.5 25t39.5 33q19 18 33.5 39.5t25.5 44.5q23 53 23 108q0 24 -4.5 47.5t-13.5 44.5q-13 40 -42 75q-14 17 -30 30.5t-33 25.5l-38.5 19.5t-39.5 15.5q-15 5 -32.5 7.5t-37.5 2.5q-29 0 -55.5 -6
t-51.5 -18q-48 -18 -84 -57q-17 -18 -30.5 -40t-24.5 -45zM1141 935l315 319q30 -39 46 -80t16 -83q0 -22 -3.5 -43.5t-11.5 -41.5q-8 -18 -18 -35.5t-23 -35.5h-321zM1094 928q-27 35 -44 75q-8 19 -11 42t-3 46q0 22 3 42t11 40q5 20 15.5 37t23.5 34h321zM1134 207
q3 -5 5 -11t6 -14q2 -7 2 -14v-31q0 -7 -2 -13q-4 -7 -6 -14t-5 -13l-8.5 -11t-9.5 -11q-7 -5 -11.5 -9.5t-11.5 -7.5q-5 -6 -12 -8t-13 -5q-9 -1 -16.5 -2t-14.5 -1q-11 0 -21.5 2.5t-21.5 5.5q-12 5 -20 11t-16 14q-15 16 -23 35q-4 11 -6 21.5t-2 22.5q0 7 0.5 14t2.5 14
q4 16 12 25q4 8 8 13t8 11q6 5 11.5 9l12.5 9l11.5 5.5t15.5 5.5q5 1 12 2t16 1q7 0 14.5 -1t16.5 -2q6 -3 13 -5.5t12 -5.5q7 -5 11.5 -9t11.5 -9l9.5 -11t8.5 -13zM2195 207q3 -5 6 -11t5 -14q3 -7 3 -14v-31q0 -7 -3 -13q-2 -7 -5 -14t-6 -13q-6 -11 -16 -22l-13 -9.5
t-11 -7.5q-7 -6 -13.5 -8t-14.5 -5q-6 -1 -13 -2t-16 -1q-21 0 -43 8q-9 5 -17.5 11t-16.5 14q-7 7 -13.5 15.5t-9.5 19.5q-5 11 -7 21.5t-2 22.5q0 7 1 14t1 14q3 8 6.5 14l6.5 11q3 8 7 13t10 11q5 5 10.5 9l12.5 9q5 3 12 5.5t13 5.5q9 1 16 2t13 1q9 0 16 -1t13 -2
l14.5 -5.5t13.5 -5.5q5 -5 11 -9l13 -9q3 -6 8.5 -11t7.5 -13zM2433 260q1 0 2 1t6 1h38v-218h-38v159q-2 -1 -2.5 -3.5t-2.5 -6.5q-1 -3 -1 -5.5t-1 -5.5l-14.5 -34.5t-15.5 -33.5q-5 -17 -12 -34t-14 -36h-38l-55 138q-3 4 -3 11q-1 3 -3 4l-1 1v-154h-41v218h38
q6 0 7.5 -1t2.5 -1q3 -2 4 -2t3 -1l7 -5q1 -2 3 -4t2 -4q5 -16 12 -32l14 -33q6 -17 12.5 -33.5t13.5 -31.5v-11q2 0 3 -4q0 4 2 4v5q0 2 0.5 3.5t0.5 2.5l8 15l45 115q0 2 1 4l2 4q1 2 4 3t3 2q2 1 4 1t4 2zM1330 262h39v-218h-38l-101 147l-3 1l-1 2q-3 4 -3 7q-4 1 -4 4
q-1 1 -1.5 2t-2.5 2v-165h-40v218h36q4 0 7.5 -1t4.5 -3q4 -1 6 -2t4 -3l22 -32q11 -16 21 -34q14 -14 24.5 -29.5t24.5 -30.5q0 -3 1 -5.5t2 -6.5q0 -1 1 -3t1 -4v154zM672 262l94 -218h-24q-9 0 -17 4q-3 2 -4.5 6.5t-5.5 8.5l-12 28h-100l-11 -28q-1 -4 -2 -5t-3 -1
q-1 -5 -3 -6l-4 -3q-2 0 -3.5 -1.5t-4.5 -1.5q0 -1 -3 -1h-28l95 218h36zM260 262h139v-38h-99v-50h80v-40h-80v-53h99v-37h-139v218zM1966 659q1 7 1 11v22q0 6 -1 10q-3 9 -9 19q-4 6 -14 15q-2 3 -5.5 6t-7.5 8q-5 1 -10 3l-10 4q-5 1 -9 1.5t-11 0.5q-6 0 -11 -0.5
t-9 -1.5q-12 -4 -20 -7q-4 -5 -7.5 -8t-7.5 -6q-4 -4 -7 -7.5t-6 -7.5q-2 -6 -4.5 -10t-3.5 -9q-3 -10 -3 -23q0 -6 1.5 -14t5.5 -14q5 -16 17 -27q5 -5 11 -9t13 -5q13 -6 31 -6h11q4 0 9 1q5 2 10 3.5t10 4.5q4 4 7.5 6t5.5 5q10 7 14 17q6 9 9 18zM838 659q1 7 2 11t1 9
q0 13 -3 23q-1 5 -3.5 9t-4.5 10q-4 6 -13 15q-3 3 -7 6t-10 8q-3 1 -7 3t-10 4q-5 1 -10 1.5t-11 0.5q-5 0 -10 -0.5t-10 -1.5q-6 -2 -10.5 -4t-8.5 -3q-4 -5 -8 -8t-9 -6q-3 -4 -6 -7.5t-5 -7.5q-4 -6 -5 -10t-3 -9q-3 -10 -3 -23q0 -6 2 -14t4 -14q3 -8 7.5 -14.5
l8.5 -12.5q7 -5 13.5 -9t14.5 -5q12 -6 28 -6h11q5 0 10 1q11 4 17 8q13 6 17 11q6 7 13 17q2 5 4.5 9.5t3.5 8.5zM74 262h159v-24q0 -2 -2 -4q0 -5 -1.5 -6.5t-4.5 -3.5l-106 -145h2l1 2h109v-37h-165v13q0 8 1 11q0 2 6 8l1 4l2 4q2 2 3.5 4.5t2.5 5.5l95 130h-103v38z
M1839 203q-8 -9 -15 -24q-2 -5 -4 -11.5t-2 -13.5q0 -8 2 -14.5l4 -12.5q3 -9 6.5 -14.5t8.5 -9.5q4 -5 10 -8.5l13 -7.5q8 -3 14.5 -4.5t13.5 -1.5t11 1.5t9 1.5q5 2 10 5t10 7q4 1 7 2h13q4 0 7 -1q6 -2 9 -6l7 -10q-6 -8 -16 -15q-6 -3 -11 -6t-11 -6q-5 -4 -10.5 -5.5
t-11.5 -3.5t-11 -2.5t-12 -0.5q-13 0 -23.5 2.5t-20.5 5.5q-21 10 -35 25q-16 16 -24 35q-4 11 -6.5 21.5t-2.5 22.5q0 7 1 14t3 14q1 8 3.5 14t7.5 11q5 8 8.5 13t9.5 11q6 5 11.5 9l12.5 9q5 3 11 5.5t15 5.5q6 1 13.5 2t15.5 1h12q5 0 11 -3q6 -2 11.5 -3.5t10.5 -3.5
q6 -3 11 -6t11 -7q10 -9 16 -16l-7 -9q-3 -3 -5 -4.5t-4 -3.5h-14q-3 0 -6.5 0.5t-6.5 2.5q-5 4 -10 6.5t-10 5.5q-5 1 -9 1.5t-11 0.5q-16 0 -28 -6q-7 -3 -13 -6.5t-10 -8.5zM1690 149q3 -3 6 -7t4 -9q1 -4 3 -9t2 -12q0 -14 -7 -28l-8 -12q-4 -6 -9 -9l-11 -9t-13 -6
q-7 -3 -15 -4.5t-14 -1.5q-8 0 -15.5 1.5t-16.5 4.5q-7 2 -12 6.5l-12 10.5q-4 2 -6 6l-4 8q-5 2 -6 12h1q1 1 5 3l1 1q1 1 3 2h4l2 1h12q3 0 4 -1q7 0 10 -3q4 -3 8 -5.5t6 -4.5q2 0 6 -1.5t10 -1.5q2 0 5 0.5t8 2.5q6 2 11 7q6 3 9 7t4.5 7t1.5 7q0 7 -6 11q-4 6 -9 6
q-2 4 -5.5 5t-5.5 3q-7 1 -15 6q-6 1 -10.5 2t-10.5 4q-7 4 -11.5 7t-8.5 7q-5 3 -8.5 7.5t-4.5 8.5q-6 12 -6 24q0 18 6 26q2 7 6 11l9 9q4 3 9.5 5.5t13.5 5.5q5 1 11 2t13 1q4 0 8.5 -1t9.5 -2q6 -2 9 -3.5t8 -3.5q4 -3 7.5 -6t6.5 -7q2 -2 6 -5.5t5 -6.5l-8 -5
q-2 -1 -5 -3t-4 -5h-18q-7 2 -7 3q-3 1 -6 4q-2 0 -3 0.5t-2 0.5q-5 1 -7 1q-8 0 -12 -1q-3 0 -4 -1t-5 -3q-2 -1 -6 -7q-1 -3 -1 -9t1 -6q3 -3 4 -4.5t2 -5.5q4 0 6.5 -0.5t6.5 -1.5q4 -2 9.5 -4.5t8.5 -3.5l8 -2q6 -4 11 -6t11 -6q9 -3 16 -14zM1104 127q2 6 3 12.5
t1 14.5q0 12 -4 25q-3 10 -7.5 14.5t-10.5 9.5q-3 5 -8.5 8.5t-12.5 6.5q-12 6 -28 6t-28 -6l-10.5 -6.5t-10.5 -8.5q-7 -5 -10 -9.5t-6 -14.5q-5 -5 -5.5 -11.5t-0.5 -13.5q0 -8 0.5 -14.5t5.5 -12.5q3 -9 6 -14.5t10 -9.5q5 -5 10.5 -8.5t10.5 -7.5q6 -3 13 -4.5t15 -1.5
q7 0 14 1.5t14 4.5q7 4 12.5 7.5t8.5 8.5q6 4 10.5 9.5t7.5 14.5zM2283 336q-6 -5 -11.5 -9t-12.5 -7q-6 -2 -12 -2.5t-13 -0.5q-9 0 -16.5 0.5t-13.5 2.5q-13 4 -23 16q-4 4 -7.5 9.5l-7.5 11.5l-4 15.5t-2 14.5q0 3 1 7.5t2 8.5t2.5 9.5t4.5 8.5q3 5 6 8.5t5 6.5
q5 2 8.5 5.5t7.5 5.5q5 3 9.5 4.5t7.5 3.5q6 0 9.5 1.5t10.5 1.5q3 0 7.5 -1.5t10.5 -1.5l9 -3.5t7 -4.5q4 -2 8.5 -5.5t6.5 -5.5l4.5 -6.5t4.5 -8.5q6 -7 8 -18q2 -4 3 -8.5t1 -7.5q0 -7 -1 -14.5t-5 -15.5q-1 -6 -5.5 -11.5t-9.5 -9.5zM2164 127q6 12 6 27q0 7 -2 13.5
t-4 11.5q-2 10 -5.5 14.5t-8.5 9.5q-9 10 -24 15q-5 4 -12 5t-16 1q-14 0 -27 -6q-6 -3 -11.5 -6.5t-10.5 -8.5t-9 -9.5t-8 -14.5q-1 -5 -2 -11.5t-1 -13.5q0 -8 1 -14.5l2 -12.5q7 -16 17 -24q5 -5 10.5 -8.5l11.5 -7.5q7 -3 14.5 -4.5t12.5 -1.5q9 0 16 1.5t12 4.5
l13.5 7.5t10.5 8.5q10 9 14 24zM1579 336q-12 9 -17 21q-6 14 -6 30q0 3 0.5 7.5t0.5 8.5q6 11 9 18q5 8 13 15q6 8 12 11q5 3 9.5 4.5t9.5 3.5q4 0 8 1.5t10 1.5q5 0 10.5 -1.5t10.5 -1.5q3 -2 7.5 -3.5t8.5 -4.5q3 -2 6.5 -5.5t6.5 -5.5q4 -3 5.5 -6.5t6.5 -8.5
q3 -7 7 -18q1 -4 2 -8.5t1 -7.5q0 -7 -1.5 -14.5t-5.5 -15.5q-2 -6 -6 -11.5t-9 -9.5q-5 -5 -10.5 -9t-13.5 -7t-26 -3q-8 0 -15 0.5t-12 2.5q-15 4 -22 16zM775 262h139v-38h-100v-57h82v-38h-82v-85h-39v218zM572 224h-60v-180h-42v180h-64v38h166v-38zM1188 864
q-19 9 -37.5 20.5t-34.5 25.5h322q-16 -14 -34.5 -25.5t-38.5 -20.5q-21 -6 -43.5 -11.5t-45.5 -5.5q-24 0 -45 5.5zM1365 1315q20 -8 38.5 -20t33.5 -24h-323q35 30 74 44q39 18 88 18t89 -18zM1389 262h165v-38h-65v-180h-39v180h-61v38zM560 605l-48 66q3 1 6 1.5t6 3.5
q7 3 8 10q3 2 5.5 5.5t3.5 7.5v23q0 4 -2 8q-4 7 -10 13q-4 9 -15 9q-2 3 -7 4.5t-9 1.5h-55v-153h22v63h24l39 -55q2 -4 7 -6q2 -2 4 -2h21zM801 721q5 -3 9 -8.5t6 -9.5q1 -5 2.5 -11t1.5 -13q0 -5 -1.5 -10.5t-2.5 -11.5q-2 -4 -6 -8.5t-9 -7.5q-2 -4 -6.5 -7t-9.5 -7
q-4 -2 -10.5 -3t-12.5 -1q-11 0 -23 4q-4 4 -8.5 7t-9.5 7q-2 3 -6 7.5t-6 8.5q-3 6 -4 11.5t-1 10.5q0 12 5 24q2 4 6 9.5t6 8.5q5 5 9.5 7.5t8.5 5.5q7 2 12.5 3t10.5 1q12 0 23 -4l9.5 -5.5t6.5 -7.5zM1169 605l-67 153h-21l-68 -153h13q8 0 10 2q1 2 2 3t4 3l10 26h79
l9 -26q3 -4 7 -6q1 -2 9 -2h13zM1931 721q3 -3 6.5 -8.5t5.5 -9.5q2 -5 3 -11t1 -13q0 -11 -4 -22q-2 -4 -5.5 -8.5t-6.5 -7.5q-5 -4 -9.5 -7t-8.5 -7q-11 -4 -23 -4q-6 0 -12 1t-10 3q-6 4 -10 7t-8 7q-4 3 -7 7.5t-4 8.5q-3 6 -4.5 11.5t-1.5 10.5q0 12 6 24q1 4 4 9.5
t7 8.5q4 5 8 7.5t10 5.5q9 4 22 4q7 0 11.5 -1t11.5 -3q4 -3 8.5 -5.5t9.5 -7.5zM295 690q7 12 7 19q0 5 -1.5 9.5t-5.5 11.5q0 2 -4 5l-6 7q-2 4 -5.5 7t-8.5 3q-3 3 -8.5 4.5t-10.5 1.5h-54v-153h19v57h35q5 0 10.5 0.5t8.5 3.5q10 4 14 9q3 3 6.5 7t3.5 8zM2126 758h-21
v-119q-2 2 -2.5 5t-2.5 5l-74 103l-5 5q-1 0 -4 0.5t-5 0.5h-16v-153h23v125h1v-4l1 -3l88 -118h17v153zM1579 407q-4 -5 -5.5 -11t-1.5 -9q0 -4 0.5 -8t1.5 -7q1 -7 7 -15q1 -2 3 -4.5t4 -5.5l5 -5q3 -3 8 -3q3 -3 6.5 -4.5t5.5 -2.5q4 -1 8 -1h14q6 0 8 1q3 1 6 2.5t8 4.5
q2 0 5 3l5 5q2 3 5 5.5t4 4.5q2 4 3 7.5t2 7.5q1 3 1.5 7t0.5 8q0 3 -1 9t-4 11q-1 6 -4.5 10t-6.5 9q-3 3 -8 6l-10 6q-4 0 -9.5 0.5t-11.5 0.5q-7 0 -11.5 -0.5t-10.5 -0.5q-4 -3 -9.5 -6t-8.5 -6l-5.5 -9t-3.5 -10zM2225 331h15q4 0 9 1q3 1 5.5 2.5t4.5 4.5q3 0 6.5 3
t7.5 5q2 3 3.5 5.5t4.5 4.5q1 4 2.5 7.5t1.5 7.5q1 3 1 7v8q0 3 -0.5 9t-0.5 11q-2 6 -6 10t-6 9q-6 3 -10.5 6t-8.5 6q-4 0 -10 0.5t-10 0.5q-7 0 -12 -0.5t-11 -0.5q-6 -3 -10 -6t-7 -6q-5 -5 -8 -9t-5 -10q-2 -5 -2 -11v-24q1 -4 2 -7.5t5 -7.5q1 -2 3 -4.5t5 -5.5l5 -5
q3 -3 5 -3q3 -3 6 -4.5t8 -2.5q3 -1 7 -1zM997 758h-19v-118l-2 4q-1 3 -1 5l-74 103q-4 0 -7 5q-2 0 -5 0.5t-5 0.5h-14v-153h21v125l2 -1l1 -2v-4l88 -118h15v153zM2114 381q-7 -2 -12 -4l44 -60h-11q-4 0 -8 2q-1 1 -2 1.5t-2 4.5l-39 52h-25v-60h-17v138h51
q3 0 6.5 -0.5t9.5 -2.5q3 -1 6 -3t4 -4q4 -3 5.5 -6.5t6.5 -7.5q0 -3 0.5 -7.5t0.5 -5.5q0 -5 -0.5 -8.5t-0.5 -6.5q-3 -4 -4.5 -8t-2.5 -5zM1343 381q-2 -2 -12 -4l47 -60h-9q-3 0 -6 0.5t-3 1.5q-2 1 -4 1.5t-3 4.5l-39 52h-25v-60h-15v138h51q3 0 6 -0.5t7 -2.5
q7 -2 15 -7q1 -3 3.5 -6.5t3.5 -7.5q2 -3 2 -8v-14q0 -3 -2 -6q0 -4 -1.5 -8t-3.5 -5l-5 -5q-2 -2 -7 -4zM2460 452q3 2 4 2.5t3 0.5h12v-138h-14v114q0 -1 -2 -3v-2q-4 -8 -7 -17t-7 -14l-5.5 -14.5t-7.5 -13.5q-2 -8 -4 -14t-5 -12l-7 -12.5t-5 -11.5h-15
q-9 12 -14.5 25.5l-11.5 27.5q-5 14 -11.5 28t-11.5 28v2q-3 0 -3 1v-112h-16v138h14q5 0 7 -3q2 -1 2.5 -1.5t0.5 -3.5l48 -108q0 -3 3 -3v-1l1 2q1 2 1 4q0 4 5 8l41 98q2 3 3 3.5t2 1.5zM411 758h-95v-153h95v19h-73v47h60v20h-60v45h73v22zM1723 758h-94v-153h94v19h-73
v47h60v20h-60v45h73v22zM1479 758h-20v-103q0 -3 -3 -8q-1 -7 -10 -12q-1 -2 -4.5 -4.5t-5.5 -5.5l-9 -2h-7q-11 0 -15 2q-6 3 -9.5 5.5t-4.5 4.5q-2 2 -4 5t-7 7q0 5 -1 8.5t-1 10.5v92h-20v-92q0 -7 0.5 -11t1.5 -8q0 -7 5 -14q5 -9 11 -13q2 -2 5.5 -5t7.5 -5
q2 -1 5.5 -2t7.5 -3q5 -1 8.5 -2t9.5 -1q4 0 7 1t10 2q3 2 6 3t7 2q7 5 12 10q5 3 6.5 5.5t3.5 7.5q1 3 3.5 6.5t3.5 7.5v111zM663 631q2 5 3 8.5t1 9.5q0 11 -4.5 19t-11.5 14q-2 1 -3.5 2.5t-5.5 3.5l-6 2q-1 1 -3.5 1t-2.5 3q-5 0 -7 3q-6 1 -8.5 2t-6.5 3q-6 2 -7 3
q-6 4 -6 6v16q1 2 3.5 3.5t2.5 3.5q1 0 3.5 1t3.5 1q4 1 6.5 1.5t5.5 0.5l2 -1q2 -1 4 -1q7 0 8 -5q2 -1 4 -1h4q9 0 13 4l5 2q-1 2 -3 3l-3 4q-3 3 -5.5 5t-6.5 4q-2 0 -4.5 1.5t-7.5 3.5q-4 1 -5.5 1.5t-4.5 0.5q-5 0 -10 -0.5t-8 -1.5q-6 -2 -8.5 -4t-6.5 -3
q-2 -4 -6 -7.5t-5 -6.5q-1 -4 -2.5 -7.5t-1.5 -9.5q0 -5 0.5 -9t3.5 -7q1 -4 4 -7.5t5 -5.5l7 -4.5t9 -3.5q3 -3 6 -4.5t7 -2.5q3 -2 6.5 -2t5.5 -1l6 -2q2 0 4 -2q3 -2 3.5 -3.5t2.5 -5.5q2 -2 2 -5v-10q0 -3 -2 -5q-2 -3 -2.5 -4.5t-3.5 -3.5q-2 -4 -5.5 -5t-4.5 -2
q-3 0 -6 -0.5t-6 -0.5q-4 0 -6.5 0.5t-4.5 0.5q-2 1 -5 2t-3 5l-3 2q-5 4 -12 4h-4q-1 0 -4 -2l-7 -2q0 -5 4 -5q0 -2 3 -4q0 -3 3 -4q0 -1 1 -3h2q8 -8 17 -10.5t19 -2.5q5 0 9.5 0.5t10.5 2.5q4 1 9.5 3t7.5 7q4 2 7.5 5t4.5 9zM1598 631q6 9 6 18q0 11 -4 19t-13 14
q-5 4 -6 6q-2 0 -4.5 0.5t-4.5 1.5q0 1 -3 1t-5 3h-3q-2 1 -4 3q-3 1 -5 2t-5 3q-8 2 -9 3q-4 2 -5 3.5t-2 2.5q0 2 -1 3.5t-1 4.5q0 4 4 8q1 3 5 7q2 0 3 1t6 1q1 2 9 2q1 0 3.5 -1t4.5 -1q2 -2 8 -5q7 -1 9 -1q6 0 9 4l6 2q-1 2 -3.5 3.5t-4.5 3.5q-1 3 -3.5 5t-5.5 4
q-4 0 -6 1.5t-6 3.5q-3 1 -6.5 1.5t-4.5 0.5q-5 0 -9.5 -0.5t-8.5 -1.5l-14 -7q-4 -4 -6 -7.5t-5 -6.5q-2 -4 -3.5 -7.5t-1.5 -9.5q0 -5 1.5 -9t3.5 -7q4 -8 9 -13l6.5 -4.5t6.5 -3.5q5 -3 9 -4.5t7 -2.5q4 -2 5.5 -2t5.5 -1q2 -1 5 -1.5t5 -2.5t4.5 -3.5t2.5 -5.5
q2 -2 2.5 -4.5t0.5 -5.5q0 -2 -0.5 -5t-2.5 -5q-1 -6 -7 -8q-5 -4 -6.5 -5t-3.5 -2q-5 0 -6.5 -0.5t-4.5 -0.5t-6.5 0.5t-5.5 0.5q-5 2 -10 7l-2 2q-5 4 -10 4h-5q-3 0 -4 -2l-6 -2q1 -2 1 -3.5t3 -1.5q0 -1 0.5 -2t0.5 -2l2 -2q1 -1 1 -2q5 -3 7 -3q6 -8 15 -10.5t19 -2.5
q5 0 10 0.5t11 2.5q3 1 7 3t9 7l5 5q3 3 5 9zM1741 317h-16v138h13q2 0 4.5 -0.5t4.5 -3.5l73 -102q2 -1 2 -4l2 -3v113h15v-138h-13l-82 114v3h-3v-117zM78 351q-4 4 -5.5 8t-2.5 8q-3 6 -3.5 10t-0.5 10q0 7 4 16q1 4 2.5 9.5t5.5 8.5l3.5 8.5t7.5 6.5q1 2 5 5.5t7 5.5
q6 3 9.5 4.5t7.5 3.5q4 0 9.5 1.5t11.5 1.5q7 0 13.5 -2t13.5 -5q8 -2 13.5 -5.5t9.5 -9.5q-2 -2 -4 -2v-3h-3q0 -1 -2 -1h-3q-6 0 -7 1q-4 2 -7.5 4.5t-7.5 2.5q-5 1 -8 1h-8q-6 0 -11.5 -0.5t-9.5 -0.5q-6 -3 -11 -6t-9 -6q-4 -5 -6.5 -9t-4.5 -10q-4 -5 -4.5 -11t-0.5 -9
q0 -8 3 -15q1 -4 2.5 -7.5t1.5 -7.5l4 -5q3 -2 5 -5q4 -2 7 -5t7 -3q2 -3 5.5 -4.5t7.5 -2.5q3 -1 6 -1h16q4 0 10 1q3 1 8.5 2.5t8.5 4.5v29h-14l-1 2q-2 1 -3 2t-3 2l-2 1q-1 2 -1 4l-1 1v4h40v-53q-3 -5 -5 -6t-6 -5q-5 -1 -12 -1q-6 -2 -13 -2h-35q-4 1 -7.5 2.5
t-9.5 5.5q-3 1 -7 4t-5 7q-6 3 -7.5 7t-3.5 8zM2374 758h-18q-5 0 -9 -4q-7 -4 -7 -8l-36 -47l-2 -1q0 -1 -2 -1l-1 2l-37 47q-3 5 -6 8q-4 4 -11 4h-17l57 -76l1 -3q0 -1 2 -1l1 -2v-2l1 -1v-68h23v68q1 0 1 3q1 0 2 3v3h1zM240 438v-43h55v-16h-55v-47h68v-15h-85v138h85
v-17h-68zM1171 438v-43h59v-16h-59v-47h68v-15h-83v138h83v-17h-68zM642 455v-85q0 -5 2 -8.5t5 -5.5q1 -6 3.5 -8.5t4.5 -6.5q1 -2 4.5 -4t5.5 -4q5 -2 9 -2h16q3 0 6 2q5 2 8 4t7 4q1 4 3.5 6.5t4.5 8.5q4 5 4 14v85h14v-85q0 -6 -1 -10.5t-3 -10.5q-1 -7 -4.5 -11
t-7.5 -7q-3 -5 -7.5 -8t-9.5 -4q-11 -2 -22 -2t-24 2q-3 1 -7 4t-9 8q-6 6 -11 18q-2 6 -4 10.5t-2 10.5v85h15zM2252 624h-66v134h-23v-153h89v19zM1270 624h-66v134h-21v-153h87v19zM1453 336q2 3 4 9q2 2 2.5 5.5t0.5 5.5q0 8 -1 11q-2 1 -3 3.5t-3 3.5q-3 3 -9 5
q-4 0 -6 1.5t-7 2.5q-3 1 -6.5 3t-4.5 3q-11 1 -15 8q-3 0 -5 3t-4 5v15q0 6 0.5 9.5t1.5 6.5q1 8 9 11l7 4q3 2 8 4q3 0 5.5 1.5t8.5 1.5q2 0 5.5 -1.5t4.5 -1.5q3 0 5 -1.5t5 -2.5t4.5 -2.5t1.5 -3.5q6 -1 7 -3.5t2 -3.5l-3 -2q-3 -2 -9 -2h-6q-4 3 -4 4h-9l-1 1h-3
q-7 0 -9 -1q-7 0 -7 -2q-7 -5 -7 -8q-3 0 -3 -8q0 -5 3 -6q0 -4 4 -7q1 -1 3.5 -2.5t3.5 -1.5q4 -3 6.5 -3.5t7.5 -2.5q1 0 3.5 -0.5t2.5 -1.5q2 0 4 -0.5t5 -4.5h2v-1h2q2 0 3 -1l2 -1q6 -4 8 -7t5 -6q2 -9 2 -18q0 -6 -0.5 -10t-4.5 -7q-1 -7 -10 -13q-2 -3 -6 -4.5
t-7 -2.5q-4 -2 -9 -2h-11q-8 0 -16 1.5t-15 7.5q-1 0 -2.5 2.5t-4.5 4.5q0 2 -1 4l-1 2l3 3q1 1 4 1h2q3 0 5 -1.5t5 -2.5q4 -3 6.5 -4.5t5.5 -2.5q1 -1 4 -1h5q9 0 11 1q7 0 13 4zM1070 317l-61 138h6q6 0 10 -3q1 -1 2 -1.5t3 -3.5l44 -104v-4q1 -3 2 -5v6q1 2 1 3
l13.5 26t11.5 26q4 15 10 27.5l12 24.5q1 3 3 3.5t2 1.5q3 2 4 2.5t4 0.5h8l-15.5 -34.5t-15.5 -33.5l-15 -36l-14 -34h-15zM532 438v-48h60v-13h-60v-60h-16v138h86v-17h-70zM1957 438v-48h57v-13h-57v-60h-16v138h85v-17h-69zM370 317v121h-46v17h106v-17h-46v-121h-14z
M785 455v-123h62v-15h-79v138h17zM271 730q2 -3 3 -6t3 -5q1 -4 1 -10v-5q0 -2 -1 -5q-2 -2 -3 -5t-3 -4q-3 -4 -9 -7q-5 -1 -10 -1h-35v54h35q7 0 10 -2q3 0 5.5 -2t3.5 -2zM878 455v-123h64v-15h-79v138h15zM1325 390q5 0 6 4q3 1 5 2t5 1l2 4q1 2 3 4q0 2 1 5t1 8
q0 1 -1 2.5t-1 5.5q-2 2 -3 3.5t-2 4.5q-3 0 -5 1.5t-5 2.5h-42v-48h36zM2102 394q1 1 3 2t4 1q5 6 5 8q1 5 1 13q0 3 -1 8q0 2 -5 8q-2 0 -4 1.5t-3 2.5h-43v-48h34q5 0 9 4zM519 703q0 -1 -5 -8q-2 -1 -3 -2.5t-4 -2.5q-2 -2 -9 -2h-33v48h33q4 0 9 -2q3 0 4 -1.5t3 -2.5
q3 -5 5 -9q3 -2 3 -10q0 -6 -3 -8zM684 129l-27 68q0 1 -1 3t-1 3q0 4 -1 6v-6q0 -1 -1.5 -3t-1.5 -3l-28 -68h61zM1524 455v-138h-16v138h16zM1091 728q1 -2 1 -5l29 -64h-60l28 64q0 3 1 4v2zM1756 81q5 0 6 -6q1 -1 1 -5v-4q0 -6 -1 -9q-1 -5 -6 -9q-3 -1 -7 -4
q-1 -1 -3.5 -1.5t-5.5 -0.5q-2 0 -5 0.5t-4 1.5q-2 1 -4 2.5t-4 1.5q-1 2 -2.5 4t-4.5 5q-1 3 -1 9v4q0 4 1 5l4 4q2 2 3 2q5 6 8 6q1 3 4 3.5t5 0.5q3 0 5.5 -0.5t3.5 -3.5q4 0 7 -6z" />
    <glyph glyph-name="colon" unicode=":" horiz-adv-x="535" 
d="M265 186q131 0 131 -109q0 -48 -30 -78t-98 -30q-72 0 -103 28t-31 82q0 107 131 107zM265 1022q131 0 131 -109q0 -48 -30 -78t-98 -30q-72 0 -103 28t-31 83q0 106 131 106z" />
    <glyph glyph-name="semicolon" unicode=";" horiz-adv-x="525" 
d="M258 211q131 0 131 -109v-5q0 -63 -12 -118t-32.5 -103t-47.5 -88.5t-57 -74.5l-99 46q33 65 56.5 127.5t24.5 110.5q-51 7 -73 34t-22 74q0 54 33.5 80t97.5 26zM270 1042q131 0 131 -109q0 -48 -30 -78t-98 -30q-72 0 -103 28t-31 82q0 107 131 107z" />
    <glyph glyph-name="less" unicode="&#x3c;" horiz-adv-x="757" 
d="M318 528l358 -311l-130 -129l-479 442l479 435l131 -128z" />
    <glyph glyph-name="equal" unicode="=" horiz-adv-x="968" 
d="M126 260v175h736v-175h-736zM126 618v174h736v-174h-736z" />
    <glyph glyph-name="greater" unicode="&#x3e;" horiz-adv-x="757" 
d="M81 837l131 128l479 -435l-479 -442l-130 129l358 311z" />
    <glyph glyph-name="question" unicode="?" horiz-adv-x="931" 
d="M81 1318q31 19 71.5 36t84.5 30t90 20.5t88 7.5q118 0 196.5 -26t126.5 -70.5t68.5 -103.5t21.5 -124q1 -75 -15 -129.5t-43.5 -96.5t-65 -76t-80.5 -68q-46 -37 -77.5 -74t-50 -83t-25.5 -105.5t-5 -140.5h-180q-7 70 -8 136.5t13.5 128.5t49.5 120t101 110l69.5 56.5
t53.5 52.5t34 59.5t12 76.5q0 86 -58 129.5t-168 43.5q-60 0 -122.5 -17t-136.5 -46zM375 169q111 0 111 -94q0 -42 -25.5 -67.5t-83.5 -25.5q-114 0 -114 95q0 48 29 70t83 22z" />
    <glyph glyph-name="at" unicode="@" 
d="M2479 1091v-585h-2405v585h912q0 31 4.5 59.5t18.5 54.5q12 27 27 51t37 43q38 40 92 61q26 13 54 18t57 5q33 0 61.5 -6t53.5 -18q29 -13 52.5 -29t42.5 -35q36 -37 62 -94q19 -54 19 -110h912zM1030 1193q-21 -47 -21 -102q0 -56 21 -103q11 -24 25 -45.5t31 -41.5
q18 -18 39.5 -32.5t45.5 -24.5q48 -23 105 -23q30 0 55.5 5t48.5 15q25 11 45.5 25t39.5 33q19 18 33.5 39.5t25.5 44.5q23 53 23 108q0 24 -4.5 47.5t-13.5 44.5q-13 40 -42 75q-14 17 -30 30.5t-33 25.5l-38.5 19.5t-39.5 15.5q-15 5 -32.5 7.5t-37.5 2.5q-29 0 -55.5 -6
t-51.5 -18q-48 -18 -84 -57q-17 -18 -30.5 -40t-24.5 -45zM1141 935l315 319q30 -39 46 -80t16 -83q0 -22 -3.5 -43.5t-11.5 -41.5q-8 -18 -18 -35.5t-23 -35.5h-321zM1094 928q-27 35 -44 75q-8 19 -11 42t-3 46q0 22 3 42t11 40q5 20 15.5 37t23.5 34h321zM1134 207
q3 -5 5 -11t6 -14q2 -7 2 -14v-31q0 -7 -2 -13q-4 -7 -6 -14t-5 -13l-8.5 -11t-9.5 -11q-7 -5 -11.5 -9.5t-11.5 -7.5q-5 -6 -12 -8t-13 -5q-9 -1 -16.5 -2t-14.5 -1q-11 0 -21.5 2.5t-21.5 5.5q-12 5 -20 11t-16 14q-15 16 -23 35q-4 11 -6 21.5t-2 22.5q0 7 0.5 14t2.5 14
q4 16 12 25q4 8 8 13t8 11q6 5 11.5 9l12.5 9l11.5 5.5t15.5 5.5q5 1 12 2t16 1q7 0 14.5 -1t16.5 -2q6 -3 13 -5.5t12 -5.5q7 -5 11.5 -9t11.5 -9l9.5 -11t8.5 -13zM2195 207q3 -5 6 -11t5 -14q3 -7 3 -14v-31q0 -7 -3 -13q-2 -7 -5 -14t-6 -13q-6 -11 -16 -22l-13 -9.5
t-11 -7.5q-7 -6 -13.5 -8t-14.5 -5q-6 -1 -13 -2t-16 -1q-21 0 -43 8q-9 5 -17.5 11t-16.5 14q-7 7 -13.5 15.5t-9.5 19.5q-5 11 -7 21.5t-2 22.5q0 7 1 14t1 14q3 8 6.5 14l6.5 11q3 8 7 13t10 11q5 5 10.5 9l12.5 9q5 3 12 5.5t13 5.5q9 1 16 2t13 1q9 0 16 -1t13 -2
l14.5 -5.5t13.5 -5.5q5 -5 11 -9l13 -9q3 -6 8.5 -11t7.5 -13zM2433 260q1 0 2 1t6 1h38v-218h-38v159q-2 -1 -2.5 -3.5t-2.5 -6.5q-1 -3 -1 -5.5t-1 -5.5l-14.5 -34.5t-15.5 -33.5q-5 -17 -12 -34t-14 -36h-38l-55 138q-3 4 -3 11q-1 3 -3 4l-1 1v-154h-41v218h38
q6 0 7.5 -1t2.5 -1q3 -2 4 -2t3 -1l7 -5q1 -2 3 -4t2 -4q5 -16 12 -32l14 -33q6 -17 12.5 -33.5t13.5 -31.5v-11q2 0 3 -4q0 4 2 4v5q0 2 0.5 3.5t0.5 2.5l8 15l45 115q0 2 1 4l2 4q1 2 4 3t3 2q2 1 4 1t4 2zM1330 262h39v-218h-38l-101 147l-3 1l-1 2q-3 4 -3 7q-4 1 -4 4
q-1 1 -1.5 2t-2.5 2v-165h-40v218h36q4 0 7.5 -1t4.5 -3q4 -1 6 -2t4 -3l22 -32q11 -16 21 -34q14 -14 24.5 -29.5t24.5 -30.5q0 -3 1 -5.5t2 -6.5q0 -1 1 -3t1 -4v154zM672 262l94 -218h-24q-9 0 -17 4q-3 2 -4.5 6.5t-5.5 8.5l-12 28h-100l-11 -28q-1 -4 -2 -5t-3 -1
q-1 -5 -3 -6l-4 -3q-2 0 -3.5 -1.5t-4.5 -1.5q0 -1 -3 -1h-28l95 218h36zM260 262h139v-38h-99v-50h80v-40h-80v-53h99v-37h-139v218zM1966 659q1 7 1 11v22q0 6 -1 10q-3 9 -9 19q-4 6 -14 15q-2 3 -5.5 6t-7.5 8q-5 1 -10 3l-10 4q-5 1 -9 1.5t-11 0.5q-6 0 -11 -0.5
t-9 -1.5q-12 -4 -20 -7q-4 -5 -7.5 -8t-7.5 -6q-4 -4 -7 -7.5t-6 -7.5q-2 -6 -4.5 -10t-3.5 -9q-3 -10 -3 -23q0 -6 1.5 -14t5.5 -14q5 -16 17 -27q5 -5 11 -9t13 -5q13 -6 31 -6h11q4 0 9 1q5 2 10 3.5t10 4.5q4 4 7.5 6t5.5 5q10 7 14 17q6 9 9 18zM838 659q1 7 2 11t1 9
q0 13 -3 23q-1 5 -3.5 9t-4.5 10q-4 6 -13 15q-3 3 -7 6t-10 8q-3 1 -7 3t-10 4q-5 1 -10 1.5t-11 0.5q-5 0 -10 -0.5t-10 -1.5q-6 -2 -10.5 -4t-8.5 -3q-4 -5 -8 -8t-9 -6q-3 -4 -6 -7.5t-5 -7.5q-4 -6 -5 -10t-3 -9q-3 -10 -3 -23q0 -6 2 -14t4 -14q3 -8 7.5 -14.5
l8.5 -12.5q7 -5 13.5 -9t14.5 -5q12 -6 28 -6h11q5 0 10 1q11 4 17 8q13 6 17 11q6 7 13 17q2 5 4.5 9.5t3.5 8.5zM74 262h159v-24q0 -2 -2 -4q0 -5 -1.5 -6.5t-4.5 -3.5l-106 -145h2l1 2h109v-37h-165v13q0 8 1 11q0 2 6 8l1 4l2 4q2 2 3.5 4.5t2.5 5.5l95 130h-103v38z
M1839 203q-8 -9 -15 -24q-2 -5 -4 -11.5t-2 -13.5q0 -8 2 -14.5l4 -12.5q3 -9 6.5 -14.5t8.5 -9.5q4 -5 10 -8.5l13 -7.5q8 -3 14.5 -4.5t13.5 -1.5t11 1.5t9 1.5q5 2 10 5t10 7q4 1 7 2h13q4 0 7 -1q6 -2 9 -6l7 -10q-6 -8 -16 -15q-6 -3 -11 -6t-11 -6q-5 -4 -10.5 -5.5
t-11.5 -3.5t-11 -2.5t-12 -0.5q-13 0 -23.5 2.5t-20.5 5.5q-21 10 -35 25q-16 16 -24 35q-4 11 -6.5 21.5t-2.5 22.5q0 7 1 14t3 14q1 8 3.5 14t7.5 11q5 8 8.5 13t9.5 11q6 5 11.5 9l12.5 9q5 3 11 5.5t15 5.5q6 1 13.5 2t15.5 1h12q5 0 11 -3q6 -2 11.5 -3.5t10.5 -3.5
q6 -3 11 -6t11 -7q10 -9 16 -16l-7 -9q-3 -3 -5 -4.5t-4 -3.5h-14q-3 0 -6.5 0.5t-6.5 2.5q-5 4 -10 6.5t-10 5.5q-5 1 -9 1.5t-11 0.5q-16 0 -28 -6q-7 -3 -13 -6.5t-10 -8.5zM1690 149q3 -3 6 -7t4 -9q1 -4 3 -9t2 -12q0 -14 -7 -28l-8 -12q-4 -6 -9 -9l-11 -9t-13 -6
q-7 -3 -15 -4.5t-14 -1.5q-8 0 -15.5 1.5t-16.5 4.5q-7 2 -12 6.5l-12 10.5q-4 2 -6 6l-4 8q-5 2 -6 12h1q1 1 5 3l1 1q1 1 3 2h4l2 1h12q3 0 4 -1q7 0 10 -3q4 -3 8 -5.5t6 -4.5q2 0 6 -1.5t10 -1.5q2 0 5 0.5t8 2.5q6 2 11 7q6 3 9 7t4.5 7t1.5 7q0 7 -6 11q-4 6 -9 6
q-2 4 -5.5 5t-5.5 3q-7 1 -15 6q-6 1 -10.5 2t-10.5 4q-7 4 -11.5 7t-8.5 7q-5 3 -8.5 7.5t-4.5 8.5q-6 12 -6 24q0 18 6 26q2 7 6 11l9 9q4 3 9.5 5.5t13.5 5.5q5 1 11 2t13 1q4 0 8.5 -1t9.5 -2q6 -2 9 -3.5t8 -3.5q4 -3 7.5 -6t6.5 -7q2 -2 6 -5.5t5 -6.5l-8 -5
q-2 -1 -5 -3t-4 -5h-18q-7 2 -7 3q-3 1 -6 4q-2 0 -3 0.5t-2 0.5q-5 1 -7 1q-8 0 -12 -1q-3 0 -4 -1t-5 -3q-2 -1 -6 -7q-1 -3 -1 -9t1 -6q3 -3 4 -4.5t2 -5.5q4 0 6.5 -0.5t6.5 -1.5q4 -2 9.5 -4.5t8.5 -3.5l8 -2q6 -4 11 -6t11 -6q9 -3 16 -14zM1104 127q2 6 3 12.5
t1 14.5q0 12 -4 25q-3 10 -7.5 14.5t-10.5 9.5q-3 5 -8.5 8.5t-12.5 6.5q-12 6 -28 6t-28 -6l-10.5 -6.5t-10.5 -8.5q-7 -5 -10 -9.5t-6 -14.5q-5 -5 -5.5 -11.5t-0.5 -13.5q0 -8 0.5 -14.5t5.5 -12.5q3 -9 6 -14.5t10 -9.5q5 -5 10.5 -8.5t10.5 -7.5q6 -3 13 -4.5t15 -1.5
q7 0 14 1.5t14 4.5q7 4 12.5 7.5t8.5 8.5q6 4 10.5 9.5t7.5 14.5zM2283 336q-6 -5 -11.5 -9t-12.5 -7q-6 -2 -12 -2.5t-13 -0.5q-9 0 -16.5 0.5t-13.5 2.5q-13 4 -23 16q-4 4 -7.5 9.5l-7.5 11.5l-4 15.5t-2 14.5q0 3 1 7.5t2 8.5t2.5 9.5t4.5 8.5q3 5 6 8.5t5 6.5
q5 2 8.5 5.5t7.5 5.5q5 3 9.5 4.5t7.5 3.5q6 0 9.5 1.5t10.5 1.5q3 0 7.5 -1.5t10.5 -1.5l9 -3.5t7 -4.5q4 -2 8.5 -5.5t6.5 -5.5l4.5 -6.5t4.5 -8.5q6 -7 8 -18q2 -4 3 -8.5t1 -7.5q0 -7 -1 -14.5t-5 -15.5q-1 -6 -5.5 -11.5t-9.5 -9.5zM2164 127q6 12 6 27q0 7 -2 13.5
t-4 11.5q-2 10 -5.5 14.5t-8.5 9.5q-9 10 -24 15q-5 4 -12 5t-16 1q-14 0 -27 -6q-6 -3 -11.5 -6.5t-10.5 -8.5t-9 -9.5t-8 -14.5q-1 -5 -2 -11.5t-1 -13.5q0 -8 1 -14.5l2 -12.5q7 -16 17 -24q5 -5 10.5 -8.5l11.5 -7.5q7 -3 14.5 -4.5t12.5 -1.5q9 0 16 1.5t12 4.5
l13.5 7.5t10.5 8.5q10 9 14 24zM1579 336q-12 9 -17 21q-6 14 -6 30q0 3 0.5 7.5t0.5 8.5q6 11 9 18q5 8 13 15q6 8 12 11q5 3 9.5 4.5t9.5 3.5q4 0 8 1.5t10 1.5q5 0 10.5 -1.5t10.5 -1.5q3 -2 7.5 -3.5t8.5 -4.5q3 -2 6.5 -5.5t6.5 -5.5q4 -3 5.5 -6.5t6.5 -8.5
q3 -7 7 -18q1 -4 2 -8.5t1 -7.5q0 -7 -1.5 -14.5t-5.5 -15.5q-2 -6 -6 -11.5t-9 -9.5q-5 -5 -10.5 -9t-13.5 -7t-26 -3q-8 0 -15 0.5t-12 2.5q-15 4 -22 16zM775 262h139v-38h-100v-57h82v-38h-82v-85h-39v218zM572 224h-60v-180h-42v180h-64v38h166v-38zM1188 864
q-19 9 -37.5 20.5t-34.5 25.5h322q-16 -14 -34.5 -25.5t-38.5 -20.5q-21 -6 -43.5 -11.5t-45.5 -5.5q-24 0 -45 5.5zM1365 1315q20 -8 38.5 -20t33.5 -24h-323q35 30 74 44q39 18 88 18t89 -18zM1389 262h165v-38h-65v-180h-39v180h-61v38zM560 605l-48 66q3 1 6 1.5t6 3.5
q7 3 8 10q3 2 5.5 5.5t3.5 7.5v23q0 4 -2 8q-4 7 -10 13q-4 9 -15 9q-2 3 -7 4.5t-9 1.5h-55v-153h22v63h24l39 -55q2 -4 7 -6q2 -2 4 -2h21zM801 721q5 -3 9 -8.5t6 -9.5q1 -5 2.5 -11t1.5 -13q0 -5 -1.5 -10.5t-2.5 -11.5q-2 -4 -6 -8.5t-9 -7.5q-2 -4 -6.5 -7t-9.5 -7
q-4 -2 -10.5 -3t-12.5 -1q-11 0 -23 4q-4 4 -8.5 7t-9.5 7q-2 3 -6 7.5t-6 8.5q-3 6 -4 11.5t-1 10.5q0 12 5 24q2 4 6 9.5t6 8.5q5 5 9.5 7.5t8.5 5.5q7 2 12.5 3t10.5 1q12 0 23 -4l9.5 -5.5t6.5 -7.5zM1169 605l-67 153h-21l-68 -153h13q8 0 10 2q1 2 2 3t4 3l10 26h79
l9 -26q3 -4 7 -6q1 -2 9 -2h13zM1931 721q3 -3 6.5 -8.5t5.5 -9.5q2 -5 3 -11t1 -13q0 -11 -4 -22q-2 -4 -5.5 -8.5t-6.5 -7.5q-5 -4 -9.5 -7t-8.5 -7q-11 -4 -23 -4q-6 0 -12 1t-10 3q-6 4 -10 7t-8 7q-4 3 -7 7.5t-4 8.5q-3 6 -4.5 11.5t-1.5 10.5q0 12 6 24q1 4 4 9.5
t7 8.5q4 5 8 7.5t10 5.5q9 4 22 4q7 0 11.5 -1t11.5 -3q4 -3 8.5 -5.5t9.5 -7.5zM295 690q7 12 7 19q0 5 -1.5 9.5t-5.5 11.5q0 2 -4 5l-6 7q-2 4 -5.5 7t-8.5 3q-3 3 -8.5 4.5t-10.5 1.5h-54v-153h19v57h35q5 0 10.5 0.5t8.5 3.5q10 4 14 9q3 3 6.5 7t3.5 8zM2126 758h-21
v-119q-2 2 -2.5 5t-2.5 5l-74 103l-5 5q-1 0 -4 0.5t-5 0.5h-16v-153h23v125h1v-4l1 -3l88 -118h17v153zM1579 407q-4 -5 -5.5 -11t-1.5 -9q0 -4 0.5 -8t1.5 -7q1 -7 7 -15q1 -2 3 -4.5t4 -5.5l5 -5q3 -3 8 -3q3 -3 6.5 -4.5t5.5 -2.5q4 -1 8 -1h14q6 0 8 1q3 1 6 2.5t8 4.5
q2 0 5 3l5 5q2 3 5 5.5t4 4.5q2 4 3 7.5t2 7.5q1 3 1.5 7t0.5 8q0 3 -1 9t-4 11q-1 6 -4.5 10t-6.5 9q-3 3 -8 6l-10 6q-4 0 -9.5 0.5t-11.5 0.5q-7 0 -11.5 -0.5t-10.5 -0.5q-4 -3 -9.5 -6t-8.5 -6l-5.5 -9t-3.5 -10zM2225 331h15q4 0 9 1q3 1 5.5 2.5t4.5 4.5q3 0 6.5 3
t7.5 5q2 3 3.5 5.5t4.5 4.5q1 4 2.5 7.5t1.5 7.5q1 3 1 7v8q0 3 -0.5 9t-0.5 11q-2 6 -6 10t-6 9q-6 3 -10.5 6t-8.5 6q-4 0 -10 0.5t-10 0.5q-7 0 -12 -0.5t-11 -0.5q-6 -3 -10 -6t-7 -6q-5 -5 -8 -9t-5 -10q-2 -5 -2 -11v-24q1 -4 2 -7.5t5 -7.5q1 -2 3 -4.5t5 -5.5l5 -5
q3 -3 5 -3q3 -3 6 -4.5t8 -2.5q3 -1 7 -1zM997 758h-19v-118l-2 4q-1 3 -1 5l-74 103q-4 0 -7 5q-2 0 -5 0.5t-5 0.5h-14v-153h21v125l2 -1l1 -2v-4l88 -118h15v153zM2114 381q-7 -2 -12 -4l44 -60h-11q-4 0 -8 2q-1 1 -2 1.5t-2 4.5l-39 52h-25v-60h-17v138h51
q3 0 6.5 -0.5t9.5 -2.5q3 -1 6 -3t4 -4q4 -3 5.5 -6.5t6.5 -7.5q0 -3 0.5 -7.5t0.5 -5.5q0 -5 -0.5 -8.5t-0.5 -6.5q-3 -4 -4.5 -8t-2.5 -5zM1343 381q-2 -2 -12 -4l47 -60h-9q-3 0 -6 0.5t-3 1.5q-2 1 -4 1.5t-3 4.5l-39 52h-25v-60h-15v138h51q3 0 6 -0.5t7 -2.5
q7 -2 15 -7q1 -3 3.5 -6.5t3.5 -7.5q2 -3 2 -8v-14q0 -3 -2 -6q0 -4 -1.5 -8t-3.5 -5l-5 -5q-2 -2 -7 -4zM2460 452q3 2 4 2.5t3 0.5h12v-138h-14v114q0 -1 -2 -3v-2q-4 -8 -7 -17t-7 -14l-5.5 -14.5t-7.5 -13.5q-2 -8 -4 -14t-5 -12l-7 -12.5t-5 -11.5h-15
q-9 12 -14.5 25.5l-11.5 27.5q-5 14 -11.5 28t-11.5 28v2q-3 0 -3 1v-112h-16v138h14q5 0 7 -3q2 -1 2.5 -1.5t0.5 -3.5l48 -108q0 -3 3 -3v-1l1 2q1 2 1 4q0 4 5 8l41 98q2 3 3 3.5t2 1.5zM411 758h-95v-153h95v19h-73v47h60v20h-60v45h73v22zM1723 758h-94v-153h94v19h-73
v47h60v20h-60v45h73v22zM1479 758h-20v-103q0 -3 -3 -8q-1 -7 -10 -12q-1 -2 -4.5 -4.5t-5.5 -5.5l-9 -2h-7q-11 0 -15 2q-6 3 -9.5 5.5t-4.5 4.5q-2 2 -4 5t-7 7q0 5 -1 8.5t-1 10.5v92h-20v-92q0 -7 0.5 -11t1.5 -8q0 -7 5 -14q5 -9 11 -13q2 -2 5.5 -5t7.5 -5
q2 -1 5.5 -2t7.5 -3q5 -1 8.5 -2t9.5 -1q4 0 7 1t10 2q3 2 6 3t7 2q7 5 12 10q5 3 6.5 5.5t3.5 7.5q1 3 3.5 6.5t3.5 7.5v111zM663 631q2 5 3 8.5t1 9.5q0 11 -4.5 19t-11.5 14q-2 1 -3.5 2.5t-5.5 3.5l-6 2q-1 1 -3.5 1t-2.5 3q-5 0 -7 3q-6 1 -8.5 2t-6.5 3q-6 2 -7 3
q-6 4 -6 6v16q1 2 3.5 3.5t2.5 3.5q1 0 3.5 1t3.5 1q4 1 6.5 1.5t5.5 0.5l2 -1q2 -1 4 -1q7 0 8 -5q2 -1 4 -1h4q9 0 13 4l5 2q-1 2 -3 3l-3 4q-3 3 -5.5 5t-6.5 4q-2 0 -4.5 1.5t-7.5 3.5q-4 1 -5.5 1.5t-4.5 0.5q-5 0 -10 -0.5t-8 -1.5q-6 -2 -8.5 -4t-6.5 -3
q-2 -4 -6 -7.5t-5 -6.5q-1 -4 -2.5 -7.5t-1.5 -9.5q0 -5 0.5 -9t3.5 -7q1 -4 4 -7.5t5 -5.5l7 -4.5t9 -3.5q3 -3 6 -4.5t7 -2.5q3 -2 6.5 -2t5.5 -1l6 -2q2 0 4 -2q3 -2 3.5 -3.5t2.5 -5.5q2 -2 2 -5v-10q0 -3 -2 -5q-2 -3 -2.5 -4.5t-3.5 -3.5q-2 -4 -5.5 -5t-4.5 -2
q-3 0 -6 -0.5t-6 -0.5q-4 0 -6.5 0.5t-4.5 0.5q-2 1 -5 2t-3 5l-3 2q-5 4 -12 4h-4q-1 0 -4 -2l-7 -2q0 -5 4 -5q0 -2 3 -4q0 -3 3 -4q0 -1 1 -3h2q8 -8 17 -10.5t19 -2.5q5 0 9.5 0.5t10.5 2.5q4 1 9.5 3t7.5 7q4 2 7.5 5t4.5 9zM1598 631q6 9 6 18q0 11 -4 19t-13 14
q-5 4 -6 6q-2 0 -4.5 0.5t-4.5 1.5q0 1 -3 1t-5 3h-3q-2 1 -4 3q-3 1 -5 2t-5 3q-8 2 -9 3q-4 2 -5 3.5t-2 2.5q0 2 -1 3.5t-1 4.5q0 4 4 8q1 3 5 7q2 0 3 1t6 1q1 2 9 2q1 0 3.5 -1t4.5 -1q2 -2 8 -5q7 -1 9 -1q6 0 9 4l6 2q-1 2 -3.5 3.5t-4.5 3.5q-1 3 -3.5 5t-5.5 4
q-4 0 -6 1.5t-6 3.5q-3 1 -6.5 1.5t-4.5 0.5q-5 0 -9.5 -0.5t-8.5 -1.5l-14 -7q-4 -4 -6 -7.5t-5 -6.5q-2 -4 -3.5 -7.5t-1.5 -9.5q0 -5 1.5 -9t3.5 -7q4 -8 9 -13l6.5 -4.5t6.5 -3.5q5 -3 9 -4.5t7 -2.5q4 -2 5.5 -2t5.5 -1q2 -1 5 -1.5t5 -2.5t4.5 -3.5t2.5 -5.5
q2 -2 2.5 -4.5t0.5 -5.5q0 -2 -0.5 -5t-2.5 -5q-1 -6 -7 -8q-5 -4 -6.5 -5t-3.5 -2q-5 0 -6.5 -0.5t-4.5 -0.5t-6.5 0.5t-5.5 0.5q-5 2 -10 7l-2 2q-5 4 -10 4h-5q-3 0 -4 -2l-6 -2q1 -2 1 -3.5t3 -1.5q0 -1 0.5 -2t0.5 -2l2 -2q1 -1 1 -2q5 -3 7 -3q6 -8 15 -10.5t19 -2.5
q5 0 10 0.5t11 2.5q3 1 7 3t9 7l5 5q3 3 5 9zM1741 317h-16v138h13q2 0 4.5 -0.5t4.5 -3.5l73 -102q2 -1 2 -4l2 -3v113h15v-138h-13l-82 114v3h-3v-117zM78 351q-4 4 -5.5 8t-2.5 8q-3 6 -3.5 10t-0.5 10q0 7 4 16q1 4 2.5 9.5t5.5 8.5l3.5 8.5t7.5 6.5q1 2 5 5.5t7 5.5
q6 3 9.5 4.5t7.5 3.5q4 0 9.5 1.5t11.5 1.5q7 0 13.5 -2t13.5 -5q8 -2 13.5 -5.5t9.5 -9.5q-2 -2 -4 -2v-3h-3q0 -1 -2 -1h-3q-6 0 -7 1q-4 2 -7.5 4.5t-7.5 2.5q-5 1 -8 1h-8q-6 0 -11.5 -0.5t-9.5 -0.5q-6 -3 -11 -6t-9 -6q-4 -5 -6.5 -9t-4.5 -10q-4 -5 -4.5 -11t-0.5 -9
q0 -8 3 -15q1 -4 2.5 -7.5t1.5 -7.5l4 -5q3 -2 5 -5q4 -2 7 -5t7 -3q2 -3 5.5 -4.5t7.5 -2.5q3 -1 6 -1h16q4 0 10 1q3 1 8.5 2.5t8.5 4.5v29h-14l-1 2q-2 1 -3 2t-3 2l-2 1q-1 2 -1 4l-1 1v4h40v-53q-3 -5 -5 -6t-6 -5q-5 -1 -12 -1q-6 -2 -13 -2h-35q-4 1 -7.5 2.5
t-9.5 5.5q-3 1 -7 4t-5 7q-6 3 -7.5 7t-3.5 8zM2374 758h-18q-5 0 -9 -4q-7 -4 -7 -8l-36 -47l-2 -1q0 -1 -2 -1l-1 2l-37 47q-3 5 -6 8q-4 4 -11 4h-17l57 -76l1 -3q0 -1 2 -1l1 -2v-2l1 -1v-68h23v68q1 0 1 3q1 0 2 3v3h1zM240 438v-43h55v-16h-55v-47h68v-15h-85v138h85
v-17h-68zM1171 438v-43h59v-16h-59v-47h68v-15h-83v138h83v-17h-68zM642 455v-85q0 -5 2 -8.5t5 -5.5q1 -6 3.5 -8.5t4.5 -6.5q1 -2 4.5 -4t5.5 -4q5 -2 9 -2h16q3 0 6 2q5 2 8 4t7 4q1 4 3.5 6.5t4.5 8.5q4 5 4 14v85h14v-85q0 -6 -1 -10.5t-3 -10.5q-1 -7 -4.5 -11
t-7.5 -7q-3 -5 -7.5 -8t-9.5 -4q-11 -2 -22 -2t-24 2q-3 1 -7 4t-9 8q-6 6 -11 18q-2 6 -4 10.5t-2 10.5v85h15zM2252 624h-66v134h-23v-153h89v19zM1270 624h-66v134h-21v-153h87v19zM1453 336q2 3 4 9q2 2 2.5 5.5t0.5 5.5q0 8 -1 11q-2 1 -3 3.5t-3 3.5q-3 3 -9 5
q-4 0 -6 1.5t-7 2.5q-3 1 -6.5 3t-4.5 3q-11 1 -15 8q-3 0 -5 3t-4 5v15q0 6 0.5 9.5t1.5 6.5q1 8 9 11l7 4q3 2 8 4q3 0 5.5 1.5t8.5 1.5q2 0 5.5 -1.5t4.5 -1.5q3 0 5 -1.5t5 -2.5t4.5 -2.5t1.5 -3.5q6 -1 7 -3.5t2 -3.5l-3 -2q-3 -2 -9 -2h-6q-4 3 -4 4h-9l-1 1h-3
q-7 0 -9 -1q-7 0 -7 -2q-7 -5 -7 -8q-3 0 -3 -8q0 -5 3 -6q0 -4 4 -7q1 -1 3.5 -2.5t3.5 -1.5q4 -3 6.5 -3.5t7.5 -2.5q1 0 3.5 -0.5t2.5 -1.5q2 0 4 -0.5t5 -4.5h2v-1h2q2 0 3 -1l2 -1q6 -4 8 -7t5 -6q2 -9 2 -18q0 -6 -0.5 -10t-4.5 -7q-1 -7 -10 -13q-2 -3 -6 -4.5
t-7 -2.5q-4 -2 -9 -2h-11q-8 0 -16 1.5t-15 7.5q-1 0 -2.5 2.5t-4.5 4.5q0 2 -1 4l-1 2l3 3q1 1 4 1h2q3 0 5 -1.5t5 -2.5q4 -3 6.5 -4.5t5.5 -2.5q1 -1 4 -1h5q9 0 11 1q7 0 13 4zM1070 317l-61 138h6q6 0 10 -3q1 -1 2 -1.5t3 -3.5l44 -104v-4q1 -3 2 -5v6q1 2 1 3
l13.5 26t11.5 26q4 15 10 27.5l12 24.5q1 3 3 3.5t2 1.5q3 2 4 2.5t4 0.5h8l-15.5 -34.5t-15.5 -33.5l-15 -36l-14 -34h-15zM532 438v-48h60v-13h-60v-60h-16v138h86v-17h-70zM1957 438v-48h57v-13h-57v-60h-16v138h85v-17h-69zM370 317v121h-46v17h106v-17h-46v-121h-14z
M785 455v-123h62v-15h-79v138h17zM271 730q2 -3 3 -6t3 -5q1 -4 1 -10v-5q0 -2 -1 -5q-2 -2 -3 -5t-3 -4q-3 -4 -9 -7q-5 -1 -10 -1h-35v54h35q7 0 10 -2q3 0 5.5 -2t3.5 -2zM878 455v-123h64v-15h-79v138h15zM1325 390q5 0 6 4q3 1 5 2t5 1l2 4q1 2 3 4q0 2 1 5t1 8
q0 1 -1 2.5t-1 5.5q-2 2 -3 3.5t-2 4.5q-3 0 -5 1.5t-5 2.5h-42v-48h36zM2102 394q1 1 3 2t4 1q5 6 5 8q1 5 1 13q0 3 -1 8q0 2 -5 8q-2 0 -4 1.5t-3 2.5h-43v-48h34q5 0 9 4zM519 703q0 -1 -5 -8q-2 -1 -3 -2.5t-4 -2.5q-2 -2 -9 -2h-33v48h33q4 0 9 -2q3 0 4 -1.5t3 -2.5
q3 -5 5 -9q3 -2 3 -10q0 -6 -3 -8zM684 129l-27 68q0 1 -1 3t-1 3q0 4 -1 6v-6q0 -1 -1.5 -3t-1.5 -3l-28 -68h61zM1524 455v-138h-16v138h16zM1091 728q1 -2 1 -5l29 -64h-60l28 64q0 3 1 4v2zM1756 81q5 0 6 -6q1 -1 1 -5v-4q0 -6 -1 -9q-1 -5 -6 -9q-3 -1 -7 -4
q-1 -1 -3.5 -1.5t-5.5 -0.5q-2 0 -5 0.5t-4 1.5q-2 1 -4 2.5t-4 1.5q-1 2 -2.5 4t-4.5 5q-1 3 -1 9v4q0 4 1 5l4 4q2 2 3 2q5 6 8 6q1 3 4 3.5t5 0.5q3 0 5.5 -0.5t3.5 -3.5q4 0 7 -6z" />
    <glyph glyph-name="A" unicode="A" horiz-adv-x="1346" 
d="M1080 -10l-44.5 170.5l-53.5 196.5h-617l-55 -201.5l-43 -165.5l-228 10q16 69 39.5 154.5l52 181.5l61 198l66.5 203.5l69.5 199l69 183t65 156t58.5 118.5h307q39 -71 84.5 -179t93 -236l94.5 -266t87.5 -269.5t72 -246.5t49.5 -197zM657 1209q-32 -70 -63 -150.5
t-61 -167l-59 -176.5l-56 -178h511q-51 168 -111 340.5t-128 331.5h-33z" />
    <glyph glyph-name="B" unicode="B" horiz-adv-x="1238" 
d="M172 0v1394h449q107 0 193 -22.5t146.5 -67t93 -111.5t32.5 -157q0 -58 -15.5 -105.5t-43.5 -85.5t-67.5 -65.5t-86.5 -45.5v-10q59 -15 107 -44t81.5 -70.5t51.5 -95.5t18 -119q0 -199 -119.5 -297t-349.5 -98h-490zM394 168h242q136 0 210 58t74 181q0 112 -72.5 171.5
t-209.5 59.5h-244v-470zM394 800h214q64 0 115.5 15.5t87.5 44t55.5 70t19.5 94.5q0 56 -20.5 95.5t-57.5 64.5t-88.5 36.5t-114.5 11.5h-211v-432z" />
    <glyph glyph-name="C" unicode="C" horiz-adv-x="1217" 
d="M292 691q0 -266 107 -395.5t316 -129.5q89 0 171.5 26.5t173.5 74.5l73 -152q-101 -62 -218 -97.5t-229 -35.5q-139 0 -252 39t-192.5 123t-123 215.5t-43.5 317.5q0 196 43.5 335.5t123 228t192.5 130t252 41.5q59 0 118.5 -9.5t116.5 -27.5t110.5 -43t101.5 -55
l-71 -152q-88 49 -173.5 75.5t-173.5 26.5q-423 0 -423 -536z" />
    <glyph glyph-name="D" unicode="D" horiz-adv-x="1345" 
d="M172 0v1394h449q83 0 164 -15t153.5 -48t134.5 -85.5t106.5 -127.5t70 -173.5t25.5 -224.5q0 -195 -50 -332t-137 -223t-203.5 -125.5t-248.5 -39.5h-464zM394 185h238q91 0 169 32t135 97.5t89.5 164t32.5 231.5q0 129 -32 223t-89 155.5t-136 91t-173 29.5h-234v-1024z
" />
    <glyph glyph-name="E" unicode="E" horiz-adv-x="1117" 
d="M172 0v1394h837l-2 -185h-613v-412h522v-176h-522v-436h632v-185h-854z" />
    <glyph glyph-name="F" unicode="F" horiz-adv-x="1060" 
d="M172 1v1393h813v-185h-591v-459h514v-174h-514v-575h-222z" />
    <glyph glyph-name="G" unicode="G" horiz-adv-x="1312" 
d="M75 695q0 183 41.5 318t119.5 223.5t190 132t254 43.5q137 0 259 -31.5t213 -80.5l-67 -155q-91 42 -194 62t-200 20q-92 0 -165.5 -33t-125.5 -98.5t-80 -163.5t-28 -228q0 -140 26.5 -241.5t78.5 -167t130 -97t180 -31.5q61 0 117.5 9t115.5 26v320h-267v194h478v-652
q-44 -18 -99 -33.5t-115 -26t-122 -16.5t-120 -6q-305 0 -462.5 177t-157.5 536z" />
    <glyph glyph-name="H" unicode="H" horiz-adv-x="1458" 
d="M172 0v1394h222v-592h668v592h223v-1394h-223v617h-668v-617h-222z" />
    <glyph glyph-name="I" unicode="I" horiz-adv-x="568" 
d="M172 0v1394h222v-1394h-222z" />
    <glyph glyph-name="J" unicode="J" horiz-adv-x="796" 
d="M624 379q0 -98 -16.5 -172t-54.5 -124t-100 -75.5t-152 -25.5q-37 0 -73.5 5.5t-71 14.5t-66 20t-56.5 23l44 166q36 -16 82 -30.5t87 -14.5q51 0 81.5 14t47 40t21.5 61.5t5 79.5v1033h222v-1015z" />
    <glyph glyph-name="K" unicode="K" horiz-adv-x="1275" 
d="M172 1v1393h221v-674q88 57 172.5 135t157.5 167t129 184.5t88 187.5h240q-59 -155 -158.5 -307.5t-228.5 -283.5q20 -54 51.5 -118.5t71 -132t85.5 -136.5t95 -133.5t100.5 -121.5t101.5 -101l-164 -119q-69 64 -141.5 150t-139 182t-122.5 196.5t-92 193.5
q-119 -96 -246 -158v-504h-221z" />
    <glyph glyph-name="L" unicode="L" horiz-adv-x="1052" 
d="M172 0v1394h222v-1209h576v-185h-798z" />
    <glyph glyph-name="M" unicode="M" horiz-adv-x="1805" 
d="M108 0q5 164 16.5 323t25.5 310q10 106 21.5 212t24 204.5l24.5 186.5t23 157h323l331 -1063h12l329 1063h323q12 -74 23.5 -156.5l23.5 -176t24 -199t23 -224.5q8 -92 14.5 -174t11.5 -159t9 -152t7 -152h-226q-2 70 -7 165.5t-12.5 203t-17 220t-20 215.5t-22 190.5
t-22.5 144.5h-14l-336 -1083h-234l-338 1083h-14q-12 -70 -23.5 -161t-22 -192t-19.5 -208.5t-16 -210.5t-12.5 -197.5t-7.5 -169.5h-225z" />
    <glyph glyph-name="N" unicode="N" horiz-adv-x="1488" 
d="M172 0v1394h263q34 -42 73 -101.5l82 -130.5l87.5 -150l89.5 -159.5l88.5 -159l84.5 -148.5l77.5 -128t67.5 -97h13l-4 1074h222v-1394h-256q-52 65 -108 152.5t-113 186.5l-115 202.5l-113.5 200l-108 180.5t-99.5 143h-13l3 -1065h-221z" />
    <glyph glyph-name="O" unicode="O" horiz-adv-x="1443" 
d="M1370 696q-1 -185 -50.5 -320t-136 -222.5t-204 -130t-252.5 -41.5q-140 0 -260 44t-207.5 132.5t-137 222.5t-48.5 314q1 179 50 313.5t136 223.5t206.5 134t260.5 46q138 1 256 -44.5t204 -136t134.5 -224.5t48.5 -311zM727 1227q-111 0 -192 -42t-135 -114t-81 -169
t-28 -207q-2 -104 23.5 -199.5t79 -169t136.5 -117t197 -43.5q102 0 181.5 38t134 107t82.5 166.5t28 217.5q0 113 -27 210.5t-81 169t-133.5 112t-184.5 40.5z" />
    <glyph glyph-name="P" unicode="P" horiz-adv-x="1178" 
d="M172 0v1394h460q114 0 204.5 -29t153.5 -85.5t96.5 -140t33.5 -191.5q0 -124 -39.5 -214t-109.5 -149t-164.5 -87.5t-203.5 -28.5h-208v-469h-223zM395 645h210q62 0 116 16.5t94.5 51t64 88.5t23.5 130q0 87 -26.5 142.5t-69.5 86.5t-98.5 42.5t-112.5 11.5h-201v-569z
" />
    <glyph glyph-name="Q" unicode="Q" horiz-adv-x="1443" 
d="M1370 696q-1 -137 -28.5 -246t-77.5 -192t-120 -140.5t-154 -90.5q51 -45 112 -88.5t124 -83t125 -73t115 -57.5l-132 -122q-66 25 -141.5 67t-151 93.5t-147 108.5t-128.5 111q-10 0 -19.5 -0.5t-19.5 -0.5q-140 0 -260 44t-207.5 132.5t-137 222.5t-48.5 314
q1 179 50 313.5t136 223.5t206.5 134t260.5 46q138 1 256 -44.5t204 -136t134.5 -224.5t48.5 -311zM727 1227q-111 0 -192 -42t-135 -114t-81 -169t-28 -207q-2 -104 23.5 -199.5t79 -169t136.5 -117t197 -43.5q102 0 181.5 38t134 107t82.5 166.5t28 217.5q0 113 -27 210.5
t-81 169t-133.5 112t-184.5 40.5z" />
    <glyph glyph-name="S" unicode="S" horiz-adv-x="1079" 
d="M119 273q74 -35 128.5 -56t99 -32.5t84 -15t83.5 -3.5q66 0 114.5 17t80 46t47 68.5t15.5 84.5t-15 81t-46.5 64.5t-81 51.5t-118.5 43q-103 30 -183 61t-134.5 75t-83 107t-28.5 156q0 89 29.5 161t88.5 123t147 79t204 28q101 0 200.5 -25.5t207.5 -85.5l-73 -154
q-46 23 -87 38.5t-79.5 24.5t-76.5 13t-77 4q-61 0 -110 -13t-83 -37t-52 -59t-18 -79q0 -51 15.5 -85t51 -60t93 -47.5t141.5 -47.5q93 -28 165.5 -63.5t122 -83t75.5 -109t26 -142.5q0 -93 -28 -170.5t-85.5 -132.5t-145.5 -85.5t-207 -30.5q-65 0 -124.5 7.5t-117.5 23
t-116 40t-119 58.5z" />
    <glyph glyph-name="T" unicode="T" horiz-adv-x="1093" 
d="M33 1209v185h1027v-185h-403v-1209h-222v1209h-402z" />
    <glyph glyph-name="U" unicode="U" horiz-adv-x="1387" 
d="M698 -18q-131 -1 -234 30.5t-174.5 98t-109.5 169.5t-38 244v870h222v-851q0 -97 17.5 -168t56.5 -117.5t103 -69t157 -22.5q89 0 151 26t100.5 74t56 117t17.5 155v856h222v-870q0 -140 -37 -242.5t-107 -169t-171.5 -98.5t-231.5 -32z" />
    <glyph glyph-name="V" unicode="V" horiz-adv-x="1311" 
d="M499 0q-47 88 -96 202t-96.5 241t-92.5 260t-83.5 258.5t-69 237t-49.5 195.5l232 10q11 -55 33 -140.5t52 -189t67 -218l76.5 -228t81 -220t81.5 -193.5h38q30 62 67 156.5t76 205l77.5 230l72 231t59 207t39.5 159.5l232 -10q-17 -73 -45 -178t-65 -228l-81 -257
t-92.5 -264.5t-100 -251t-102.5 -215.5h-311z" />
    <glyph glyph-name="W" unicode="W" horiz-adv-x="1948" 
d="M1091 1394q16 -84 37 -183.5l44.5 -204.5t50 -212.5t54 -206.5t54.5 -186.5t53 -153.5h17q24 73 48.5 170t46.5 204t42.5 219t37 216t29 194t20.5 154l233 -10q-9 -97 -27.5 -215t-44 -245t-55.5 -257.5t-62 -253t-65 -231t-64 -192.5h-287q-27 64 -55 149t-55.5 179.5
t-53 193l-47.5 191t-39 173.5t-27 140h-6q-12 -67 -29 -149.5t-38 -172.5t-45.5 -184.5t-51.5 -186t-55 -177t-57 -156.5h-288q-27 66 -58 168t-63 224t-63 257t-57.5 268t-46.5 256t-29 221l234 10q4 -49 12.5 -116t20.5 -145.5t27 -165l31.5 -173l34 -170.5t34.5 -157
t33 -132.5t29 -97.5h17q28 67 57.5 160.5t58 199t55 217.5l50 217t42 196.5t30.5 156.5h236z" />
    <glyph glyph-name="X" unicode="X" horiz-adv-x="1244" 
d="M37 0q46 106 91.5 193.5l93.5 171.5q26 46 59 99l66.5 104l65 95t53.5 71l-50.5 68.5l-51 71l-56.5 82t-66 103.5q-45 75 -84.5 158l-81.5 177l249 10q7 -19 18.5 -47t27 -62l34 -72t39.5 -77q46 -82 89 -149.5t84 -120.5h10l33 44.5t38 56l44 71.5t51 92l39 73
t29.5 60.5l26.5 60l31 70.5l249 -10l-42.5 -94.5l-44.5 -92.5t-49 -93t-57 -96l-116 -174.5l-80 -111.5q40 -51 102.5 -143t131.5 -210l53.5 -94l49.5 -92t46 -93.5l45 -99.5l-250 -10l-26 61l-29 66.5t-37 77.5t-50 93q-64 116 -111.5 186.5t-75.5 106.5h-11
q-21 -25 -45 -59t-49 -73.5l-50.5 -82.5t-47.5 -85q-43 -79 -77 -154l-60 -137z" />
    <glyph glyph-name="Y" unicode="Y" horiz-adv-x="1210" 
d="M225 951l-72.5 129.5l-64 123l-53 108t-37.5 82.5l250 10l30.5 -71l41 -89l46.5 -96t47 -91l48 -87.5l51.5 -87.5l48.5 -76.5t39 -53.5h11q15 19 37.5 53l48 76l51 87l47.5 87l46.5 91l45 93l40.5 88l34 77l251 -10q-37 -84 -94.5 -196.5t-129.5 -240.5
q-64 -115 -133 -213.5l-140 -198.5v-545h-221v545l-133.5 191t-135.5 215z" />
    <glyph glyph-name="Z" unicode="Z" horiz-adv-x="1127" 
d="M88 0v178q43 77 101.5 161.5l124.5 172.5l136.5 178l137 177.5l125 171.5t102.5 161v9h-697v185h949v-193q-42 -80 -98.5 -163.5t-120 -168.5l-131.5 -171l-132.5 -171t-122 -168.5t-101.5 -163.5v-10h678v-185h-951z" />
    <glyph glyph-name="bracketleft" unicode="[" horiz-adv-x="665" 
d="M159 -298v1800h454v-169h-243v-1462h243v-169h-454z" />
    <glyph glyph-name="backslash" unicode="\" horiz-adv-x="883" 
d="M637 -143l-584 1589l199 65l583 -1589z" />
    <glyph glyph-name="bracketright" unicode="]" horiz-adv-x="667" 
d="M92 -298v169h243v1462h-243v169h454v-1800h-454z" />
    <glyph glyph-name="asciicircum" unicode="^" horiz-adv-x="1099" 
d="M286 1012l-183 55l317 359h286l316 -359l-186 -57l-274 267z" />
    <glyph glyph-name="underscore" unicode="_" horiz-adv-x="1306" 
d="M145 -14h1017v-158h-1017v158z" />
    <glyph glyph-name="grave" unicode="`" horiz-adv-x="676" 
d="M448 1116l-290 268l158 103l233 -301z" />
    <glyph glyph-name="a" unicode="a" horiz-adv-x="1130" 
d="M75 502q0 132 38.5 232t107 167t163.5 101t208 34q58 0 113 -8t105 -21t94 -30t81 -34v-943h-184l-26 99q-29 -22 -60 -43t-67 -37.5t-79 -26.5t-97 -10q-87 0 -160 32.5t-125.5 97t-82 162t-29.5 228.5zM283 508q0 -91 18.5 -157.5t52 -109.5t80 -63.5t101.5 -20.5
q71 0 135 25t104 62v580q-9 4 -27 10t-43 12t-55 10t-63 4q-67 0 -123 -23t-96 -67.5t-62 -110t-22 -151.5z" />
    <glyph glyph-name="b" unicode="b" horiz-adv-x="1142" 
d="M146 1444h212v-507q22 14 54.5 31.5t72 32.5t84.5 25t92 10q96 0 169 -35.5t123 -100.5t75.5 -157.5t25.5 -207.5q0 -267 -125.5 -410t-380.5 -143q-54 0 -110 7t-109 18t-100 24.5t-83 27.5v1385zM358 185q43 -13 93.5 -20.5t100.5 -7.5q150 0 222.5 91.5t72.5 274.5
q0 70 -15 132t-45.5 107.5t-77 72t-109.5 26.5q-30 0 -66.5 -9t-71 -22t-62.5 -28t-42 -28v-589z" />
    <glyph glyph-name="c" unicode="c" horiz-adv-x="955" 
d="M90 519q0 131 34 228t94.5 161.5t144.5 96t184 31.5q82 0 165.5 -20.5t168.5 -70.5l-63 -144q-114 60 -235 60q-142 0 -213.5 -90t-71.5 -261t71.5 -262t216.5 -91q64 0 122 17t110 42l63 -143q-78 -45 -160.5 -68t-175.5 -23q-123 0 -209 40.5t-141 112t-80 170
t-25 214.5z" />
    <glyph glyph-name="d" unicode="d" horiz-adv-x="1146" 
d="M816 0l-26 99q-30 -24 -63 -45.5t-70 -37.5t-79.5 -25t-90.5 -9q-84 0 -156.5 30t-126 94t-84 162.5t-30.5 236.5q0 92 20 167.5t54.5 134.5t80.5 102t98 71.5t107.5 42t109.5 13.5q45 0 78.5 -3.5t59.5 -9.5t46 -13l38 -13v447h217v-1444h-183zM298 508q0 -92 18.5 -158
t52 -109t80.5 -63.5t103 -20.5q57 0 119.5 19t115.5 60v585q-15 8 -36 15.5t-45.5 13t-52 8.5t-54.5 3q-65 0 -120 -22t-95.5 -66t-63 -110.5t-22.5 -154.5z" />
    <glyph glyph-name="e" unicode="e" horiz-adv-x="1059" 
d="M300 412q9 -62 32 -110t62 -81t95.5 -50.5t131.5 -17.5q72 0 136.5 23t118.5 52l64 -148q-82 -47 -167 -72.5t-190 -25.5q-240 0 -366.5 136t-126.5 400q0 126 34.5 222.5t97.5 162t151 99.5t196 34q88 0 162.5 -26t129 -71t85.5 -106t31 -131q0 -58 -16.5 -110.5
t-56.5 -92.5t-107 -63.5t-167 -23.5h-330zM560 861q-58 0 -103.5 -21.5t-78 -59t-52.5 -88t-28 -108.5h298q40 0 72.5 3.5t55 15t34.5 32t12 53.5q0 46 -19.5 79t-50 54t-67.5 30.5t-73 9.5z" />
    <glyph glyph-name="f" unicode="f" horiz-adv-x="659" 
d="M73 991l96 22v106q0 59 15 118.5t50.5 107t93 77.5t142.5 30q69 0 127.5 -16.5t99.5 -37.5l-50 -148q-21 8 -54 17t-81 9q-30 0 -54.5 -9.5t-41.5 -30.5t-26 -55.5t-9 -85.5v-82h223v-163h-223v-850h-212v850h-96v141z" />
    <glyph glyph-name="g" unicode="g" horiz-adv-x="1145" 
d="M90 502q0 138 41.5 238.5t112 166t164 97.5t198.5 32q53 0 107.5 -7.5t105.5 -20.5t97 -30t83 -35v-900h-2l2 -1v-8q0 -126 -35 -211t-96 -137t-143 -74t-176 -22q-41 0 -88.5 8t-96 22.5t-94.5 33.5t-83 41l60 140q53 -29 126 -52t151 -25q57 -1 106.5 13.5t86 48.5
t57 88.5t20.5 133.5v42q-30 -22 -62.5 -40.5t-69 -32t-78.5 -21.5t-90 -8q-95 0 -170 34t-127 100t-79.5 163t-27.5 223zM298 508q0 -173 68 -262t190 -89q30 0 62 7t63 19.5t58.5 28.5t47.5 34v581q-11 5 -29.5 11t-42.5 11t-53.5 8.5t-60.5 3.5q-57 0 -111 -19.5
t-97 -61.5t-69 -109t-26 -163z" />
    <glyph glyph-name="h" unicode="h" horiz-adv-x="1160" 
d="M146 1444h212v-505q27 14 63 31t79 31.5t89.5 24.5t94.5 10q93 0 157.5 -34.5t104 -90t57.5 -124.5t18 -139v-648h-209v643q0 19 -3.5 55t-21.5 72t-55 63t-104 27q-30 0 -70 -9.5t-79 -23.5t-72 -29.5t-49 -28.5v-769h-212v1444z" />
    <glyph glyph-name="i" unicode="i" horiz-adv-x="504" 
d="M146 0v1013h212v-1013h-212zM251 1390q130 0 130 -110q0 -48 -29.5 -77.5t-98.5 -29.5q-133 0 -133 109q0 56 33.5 82t97.5 26z" />
    <glyph glyph-name="j" unicode="j" horiz-adv-x="504" 
d="M-160 -177q53 -17 97.5 -26t82.5 -7q61 2 94 48.5t33 134.5v1040h212v-1053q0 -34 -5.5 -73t-19.5 -77t-37 -73t-58.5 -61.5t-84.5 -42t-114 -15.5q-40 0 -77 6t-68.5 14.5t-56.5 18l-40 15.5zM253 1390q130 0 130 -110q0 -48 -30 -77.5t-98 -29.5q-134 0 -134 109
q0 56 34 82t98 26z" />
    <glyph glyph-name="k" unicode="k" horiz-adv-x="1100" 
d="M988 1013q-53 -136 -129.5 -244t-170.5 -190q30 -69 72.5 -143t92 -145t102 -135t103.5 -113l-150 -103q-48 34 -103.5 95.5t-108 135t-98 150t-72.5 139.5q-83 -48 -168 -78v-382h-212v1444h212v-859q77 32 138.5 76t111 99t88 118.5t70.5 134.5h222v0z" />
    <glyph glyph-name="l" unicode="l" horiz-adv-x="504" 
d="M146 0v1444h212v-1444h-212z" />
    <glyph glyph-name="m" unicode="m" horiz-adv-x="1746" 
d="M139 866q31 20 82 49t118 56t147 46t169 19q83 0 143 -27t99 -78q37 20 79 39t87.5 33.5t94.5 23.5t102 9q101 0 166 -33t102 -85.5t51 -119.5t14 -134v-664h-212v607q0 39 -1 83.5t-15 82.5t-46.5 63t-95.5 25q-35 0 -73 -9.5t-73 -24t-64.5 -31.5t-48.5 -32
q9 -53 9 -111v-653h-212v636q0 33 -3 72.5t-17.5 73.5t-45.5 56.5t-87 22.5q-38 0 -75.5 -9t-71 -22t-61.5 -28.5t-46 -27.5v-774h-215v866z" />
    <glyph glyph-name="n" unicode="n" horiz-adv-x="1160" 
d="M146 865q34 24 88 53.5t122.5 56t149 44t168.5 17.5q100 0 167.5 -31t109 -83t59.5 -120.5t18 -143.5v-658h-212v645q0 36 -7.5 74t-27 69t-54 50.5t-89.5 19.5q-38 0 -78 -9.5t-77.5 -24t-70 -31t-54.5 -29.5v-764h-212v865z" />
    <glyph glyph-name="o" unicode="o" horiz-adv-x="1157" 
d="M90 516q0 120 33 216t95.5 163.5t153.5 104t207 36.5q94 0 182.5 -28.5t156 -90.5t108.5 -161t41 -241q0 -129 -33.5 -228.5t-96.5 -167t-153.5 -102.5t-204.5 -35t-204.5 34t-153.5 101.5t-97 167.5t-34 231zM298 515q0 -98 20.5 -166t58 -110.5t89 -62t114.5 -19.5
t114.5 20t88.5 63.5t57 111.5t20 163q0 90 -21 155t-58.5 107.5t-88.5 63t-112 20.5q-63 0 -115 -21t-89 -64t-57.5 -108t-20.5 -153z" />
    <glyph glyph-name="p" unicode="p" horiz-adv-x="1145" 
d="M146 881q28 21 78 47.5t110.5 50t128 39.5t132.5 16q111 0 196 -27.5t142.5 -88.5t87.5 -159t30 -238q0 -103 -25 -200t-79 -172.5t-138 -121t-202 -45.5q-51 0 -88.5 4t-66 10t-51 13l-43.5 14v-409h-212v1267zM358 192q17 -6 36.5 -12t43 -11.5t52.5 -8.5t66 -3
q83 0 139 33.5t90 86.5t48.5 117.5t14.5 126.5q0 88 -18 151.5t-51.5 104.5t-81 60t-105.5 19q-36 0 -71 -8.5t-66 -21t-56 -26.5t-41 -25v-583z" />
    <glyph glyph-name="q" unicode="q" horiz-adv-x="1145" 
d="M90 504q0 135 40.5 235t111 166t167 98.5t208.5 32.5q51 0 103 -8t101.5 -20.5t94.5 -29.5t83 -35v-1325h-212v458q-59 -41 -125.5 -67.5t-152.5 -26.5q-99 0 -177 34t-132 100t-82 163.5t-28 224.5zM298 519q0 -178 65.5 -270t198.5 -92q27 0 57 5.5t60 15.5t57.5 23.5
t50.5 28.5v599q-36 18 -86.5 25t-109.5 7q-51 0 -103 -20t-94.5 -61.5t-69 -106t-26.5 -154.5z" />
    <glyph glyph-name="r" unicode="r" horiz-adv-x="814" 
d="M157 886q162 111 322 137.5t316 -20.5l-32 -165q-47 9 -96 12.5t-99 -2.5t-100 -24t-99 -52v-772h-212v886z" />
    <glyph glyph-name="s" unicode="s" horiz-adv-x="898" 
d="M124 233q90 -44 165.5 -61.5t145.5 -17.5q39 0 71 11.5t55 30.5t36.5 43t13.5 50q0 23 -9 42.5t-33.5 38.5t-66.5 39t-107 44q-63 22 -119 45t-97.5 56t-66 80t-24.5 117q0 71 28 124.5t77 89t116.5 53.5t146.5 18q102 0 183 -20t154 -58l-60 -149q-71 28 -127 40.5
t-110 12.5q-94 0 -147 -29.5t-53 -93.5q0 -32 19.5 -51.5t51 -33.5t71 -25t78.5 -24q83 -28 140.5 -60t93 -71t51.5 -86t16 -105q0 -65 -27.5 -120.5t-76.5 -95.5t-116.5 -62.5t-148.5 -22.5q-68 0 -126.5 9t-107 22.5t-87 30.5t-65.5 32z" />
    <glyph glyph-name="t" unicode="t" horiz-adv-x="795" 
d="M90 992l118 21l26 248h186v-248h234v-163h-234v-533q0 -36 5.5 -65.5t19 -50.5t34.5 -32.5t53 -11.5q51 0 85 12t66 25l54 -145q-28 -15 -56 -27.5t-59 -21t-66 -13.5t-77 -5q-60 0 -110 19t-85.5 57.5t-55.5 98t-20 140.5v553h-118v142z" />
    <glyph glyph-name="u" unicode="u" horiz-adv-x="1160" 
d="M132 1013h212v-601q0 -74 17 -123.5t47 -78.5t70.5 -41t87.5 -12q72 0 130.5 20.5t106.5 59.5v776h212v-1013h-184l-25 98q-23 -21 -53.5 -42t-67.5 -37.5t-80 -26.5t-91 -10q-99 0 -171.5 30t-119 84t-69 129t-22.5 165v623z" />
    <glyph glyph-name="v" unicode="v" horiz-adv-x="1063" 
d="M400 0q-137 238 -226.5 494t-134.5 519l229 10q6 -55 20 -124.5t33.5 -145.5t43.5 -154.5t50.5 -153t54.5 -140.5t56 -116h12q27 49 54 112.5t53 134.5t50 147.5t43.5 152.5t34.5 149t24 138l228 -10q-42 -263 -135.5 -520.5t-224.5 -492.5h-265z" />
    <glyph glyph-name="w" unicode="w" horiz-adv-x="1681" 
d="M1608 1013q-14 -128 -39.5 -256.5t-60 -255.5t-76.5 -252.5t-88 -248.5h-278q-74 183 -131.5 362t-92.5 368h-5q-19 -104 -44 -200t-54 -186.5t-61 -176l-65 -167.5h-276q-45 112 -88.5 244.5t-79.5 267.5t-62 264.5t-36 236.5l225 10q7 -92 23 -197.5t38.5 -213.5
t51.5 -214.5t62 -200.5h8q46 110 83.5 223t65 220t46.5 202.5t30 170.5h272q9 -82 31 -185.5t53 -213t67 -218t73 -199.5h9q19 54 39 123.5t39 145.5t35.5 155.5t29.5 153t21.5 138t10.5 110.5z" />
    <glyph glyph-name="x" unicode="x" horiz-adv-x="1003" 
d="M34 0q10 34 23 67.5t28.5 69.5t35.5 75.5t46 84.5t51 79.5t49 62t45.5 49.5l41.5 43l-98.5 113t-83.5 118q-85 150 -114 251l231 3q14 -52 30 -93.5t41 -89.5q29 -56 64 -99t68 -77h9l34.5 38t32.5 39.5t32 44.5t33 54q26 46 43 89t28 94l231 -3q-9 -33 -19 -61t-23 -57
t-29.5 -61t-40.5 -71q-25 -42 -48 -73t-45.5 -57t-45.5 -50l-47 -51l41 -42.5t50 -56.5t51 -65t44 -68q34 -61 55 -102t34.5 -73t23.5 -60.5l23 -64.5l-233 -3q-6 24 -13 47t-17.5 49t-24.5 55.5t-33 65.5q-14 26 -31.5 54.5t-36 55t-36.5 49t-33 36.5h-8l-31 -35t-37.5 -47
t-38.5 -56t-34 -60q-20 -39 -34 -69.5t-23.5 -55t-16 -46t-11.5 -43.5z" />
    <glyph glyph-name="y" unicode="y" horiz-adv-x="1072" 
d="M182 -377q30 36 63 80.5l67 94l66.5 101t59.5 101.5h-32q-74 129 -132 257t-101.5 254t-73.5 251.5t-49 250.5l227 10q13 -109 37 -222t56.5 -222t73 -210t86.5 -187h12q56 102 99 217t74.5 228t51 215.5t27.5 180.5l227 -10q-9 -81 -28.5 -170.5t-46.5 -182.5t-60 -185
t-69 -178t-74.5 -161.5t-76.5 -135.5q-23 -44 -58.5 -106.5l-75.5 -129l-81 -130.5l-74 -112z" />
    <glyph glyph-name="z" unicode="z" horiz-adv-x="992" 
d="M127 837v176h757v-152l-529 -682v-4h538v-175h-810v160l526 673v4h-482z" />
    <glyph glyph-name="braceleft" unicode="{" horiz-adv-x="735" 
d="M118 676q49 10 82.5 30.5t53 50.5t26.5 70.5t3 91.5l-15 213q-6 100 12 171t62.5 116t116 66.5t170.5 21.5h34t35 -2l-8 -162q-6 0 -18 0.5t-27 -1.5q-47 0 -79 -8.5t-51.5 -28.5t-27.5 -52.5t-8 -81.5q0 -36 2.5 -77l5 -81l4.5 -75t2 -60q1 -63 -8.5 -108t-30.5 -76.5
t-54.5 -53t-79.5 -37.5q48 -18 81.5 -39.5t55 -54.5t30.5 -80.5t8 -116.5q-2 -54 -9 -122t-7 -146q0 -47 6 -81t23.5 -56t50 -32.5t85.5 -10.5q11 -2 23 -1.5t23 0.5l8 -163q-19 -2 -37.5 -1.5t-35.5 0.5q-116 1 -188.5 27.5t-112 77t-51 125t-5.5 170.5l12 178q3 50 1 89
t-18 69.5t-50.5 53t-94.5 39.5v148z" />
    <glyph glyph-name="bar" unicode="|" horiz-adv-x="495" 
d="M145 -351v1853h206v-1853h-206z" />
    <glyph glyph-name="braceright" unicode="}" horiz-adv-x="766" 
d="M642 528q-60 -17 -94 -39.5t-50 -53t-18 -69.5t1 -89l12 -178q6 -96 -5.5 -170.5t-51 -125t-112.5 -77t-188 -27.5q-18 0 -36 -0.5t-37 1.5l7 163q12 0 24 -0.5t23 1.5q52 0 84.5 10.5t50 32.5t23.5 56t6 81q0 78 -6.5 146t-8.5 122q-2 69 7.5 116.5t31 80.5t55 54.5
t81.5 39.5q-47 16 -80 37.5t-54 53t-30.5 76.5t-8.5 108q0 25 2 60l4.5 75t4.5 81t2 77q0 49 -8 81.5t-27 52.5t-51 28.5t-79 8.5q-16 2 -28 1.5t-18 -0.5l-7 162q17 2 34 2h34q99 0 170.5 -21.5t116 -66.5t63 -116t12.5 -171l-16 -213q-7 -102 30 -162t135 -81v-148z" />
    <glyph glyph-name="asciitilde" unicode="~" horiz-adv-x="1190" 
d="M87 514q57 100 136.5 146.5t185.5 46.5q53 0 100.5 -16t91 -35t84.5 -35t82 -16q31 0 55 3t45 12t41.5 26t43.5 44l134 -76q-27 -53 -63 -88.5t-77 -57t-85.5 -31t-87.5 -9.5q-53 0 -101.5 16t-93 35t-86.5 35t-82 16q-35 0 -60.5 -5t-47 -16.5t-40.5 -29t-41 -41.5z" />
    <glyph glyph-name="exclamdown" unicode="&#xa1;" horiz-adv-x="521" 
d="M171 804h189l19 -989h-226zM270 1020q-64 0 -97.5 26t-33.5 80q0 110 134 110q68 0 98 -29.5t30 -77.5q0 -109 -131 -109z" />
    <glyph glyph-name="sterling" unicode="&#xa3;" horiz-adv-x="1142" 
d="M148 680h111q-11 42 -25.5 81t-27.5 81t-22 89.5t-9 106.5q0 75 21 142.5t66.5 119t117 82t171.5 30.5q73 0 132 -8.5t110.5 -24t99.5 -38t98 -49.5l-64 -154q-33 18 -68 34.5t-74.5 29t-86.5 19.5t-105 7q-45 0 -81.5 -15t-62.5 -43t-40.5 -68t-14.5 -89
q0 -54 9.5 -96.5t23 -81t28.5 -76t25 -79.5h281v-126h-267q0 -49 -5 -102.5t-16 -105t-29 -97.5t-44 -80q40 4 79 1.5t77.5 -7l78 -9t80.5 -4.5q82 0 150 14.5t110 32.5l60 -151q-26 -15 -63.5 -27t-80 -20.5t-87 -12.5t-84.5 -4q-45 0 -91.5 3.5t-94 7.5t-95 7.5t-93.5 3.5
q-32 0 -64.5 -3.5t-60.5 -7.5q-33 -5 -63 -11v166q30 23 51.5 64.5t36 95t22 116.5t7.5 130h-127v126z" />
    <glyph glyph-name="yen" unicode="&#xa5;" horiz-adv-x="1266" 
d="M998 238h-700v148h700v-148zM998 471h-700v148h700v-148zM260 951l-72.5 129.5l-64 123l-53 108t-37.5 82.5l250 10l30.5 -71l41 -89l46.5 -96t47 -91l48 -87.5l51.5 -87.5l48.5 -76.5t39 -53.5h11q15 19 37.5 53l48 76l51 87l47.5 87l46.5 91l45 93l40.5 88l34 77
l251 -10q-37 -84 -94.5 -196.5t-129.5 -240.5q-64 -115 -133 -213.5l-140 -198.5v-545h-221v545l-133.5 191t-135.5 215z" />
    <glyph glyph-name="brokenbar" unicode="&#xa6;" horiz-adv-x="497" 
d="M145 -328v751h208v-751h-208zM145 748v784h208v-784h-208z" />
    <glyph glyph-name="section" unicode="&#xa7;" horiz-adv-x="963" 
d="M128 212q48 -21 90 -34.5t80.5 -20.5t74.5 -9.5t71 -2.5q43 0 76 11.5t55.5 30.5t34 44.5t11.5 53.5t-11 51t-36.5 43.5t-67 40t-102.5 40.5q-62 20 -117.5 43t-97 57.5t-66 83.5t-24.5 121q0 101 56.5 173.5t152.5 107.5q-47 37 -75 88t-28 125q0 72 27.5 125.5t78 89
t120.5 53t154 17.5q91 0 169 -19.5t153 -58.5l-57 -140q-70 27 -127.5 40t-111.5 13q-44 0 -80.5 -8t-63 -24.5t-41 -40.5t-14.5 -55q0 -33 19 -54.5t50 -36.5t70.5 -27l79.5 -25q81 -27 138 -56t94 -65.5t54 -84.5t17 -113q0 -101 -56 -173t-156 -104q54 -44 80 -100
t26 -131q0 -68 -26 -123t-74 -94t-117 -60.5t-154 -21.5q-66 0 -127.5 10.5t-112.5 25t-89 30.5t-58 28zM288 776q0 -38 24.5 -63t62.5 -44q53 -19 100.5 -29.5t90.5 -10.5t76 11t55.5 30t34.5 44.5t12 53.5q0 24 -7.5 43.5t-25.5 37.5t-46.5 34.5t-69.5 33.5
q-26 7 -49.5 11t-44.5 4q-44 0 -82.5 -12.5t-67.5 -34t-46 -50t-17 -59.5z" />
    <glyph glyph-name="dieresis" unicode="&#xa8;" horiz-adv-x="884" 
d="M408 1328q111 0 111 -94q0 -42 -25.5 -67.5t-83.5 -25.5q-114 0 -114 95q0 92 112 92zM752 1328q111 0 111 -94q0 -42 -26 -67.5t-83 -25.5q-114 0 -114 95q0 92 112 92z" />
    <glyph glyph-name="copyright" unicode="&#xa9;" horiz-adv-x="1560" 
d="M76 694q0 153 54 284.5t149 227.5t225 150.5t282 54.5q157 0 289 -55.5t227 -152t148.5 -226.5t53.5 -280q0 -152 -53.5 -283t-149 -227.5t-227 -151.5t-287.5 -55q-158 0 -289 54t-224.5 149.5t-145.5 226.5t-52 284zM220 694q0 -125 42.5 -231t118 -183.5t179.5 -121
t226 -43.5q81 0 155 20.5t138 57.5t115.5 89.5t88 117t56.5 139t20 156.5q0 123 -44 229.5t-121.5 185t-182 124t-225.5 45.5q-117 0 -220 -42.5t-180 -119.5t-121.5 -184.5t-44.5 -238.5zM399 702q0 126 29.5 213t82 140t124 76.5t156.5 23.5q69 0 140.5 -18t145.5 -62
l-51 -119q-52 28 -106 40.5t-106 12.5q-63 0 -109.5 -17t-77 -54.5t-45 -97.5t-14.5 -146q0 -84 14 -144.5t44.5 -98.5t78 -56t114.5 -18q57 0 108 14.5t99 37.5l51 -118q-137 -79 -287 -79q-105 0 -179 31t-121.5 90.5t-69 147t-21.5 201.5z" />
    <glyph glyph-name="ordfeminine" unicode="&#xaa;" horiz-adv-x="924" 
d="M177 1440q26 15 56 29t65 25t76.5 17.5t91.5 6.5q66 0 125 -14t103.5 -47.5t70 -89t25.5 -138.5v-533h-146l-16 78q-13 -12 -36.5 -28t-55.5 -30.5t-72 -24.5t-86 -10q-55 0 -101.5 13t-80.5 43t-53.5 78.5t-19.5 118.5q0 62 23.5 107.5t64 76t93 47.5t111.5 22l209 18
v34q0 27 -7 52.5t-26.5 45.5t-54.5 32t-92 12q-59 0 -113 -20t-102 -40zM624 1083l-194 -18q-26 -2 -51 -8.5t-45 -20.5t-32 -37.5t-12 -60.5q0 -38 9.5 -60.5t27.5 -34.5t43 -15.5t55 -3.5t60.5 5.5t57 14.5t47.5 20.5t34 22.5v196z" />
    <glyph glyph-name="guillemotleft" unicode="&#xab;" horiz-adv-x="1169" 
d="M336 529l264 -335l-162 -106l-330 442l330 435l161 -106zM811 529l264 -335l-161 -106l-330 442l330 435l161 -106z" />
    <glyph glyph-name="logicalnot" unicode="&#xac;" horiz-adv-x="1165" 
d="M93 636v172h926v-474h-184v302h-742z" />
    <glyph glyph-name="registered" unicode="&#xae;" horiz-adv-x="1459" 
d="M89 695q0 153 54 284.5t149 227.5t225 150.5t283 54.5q157 0 288.5 -55.5t227 -152t149 -226.5t53.5 -280q0 -101 -24.5 -194t-69.5 -172.5t-109 -144t-143.5 -110.5t-173 -71t-197.5 -25q-158 0 -289 54t-225 149.5t-146 226.5t-52 284zM233 695q0 -125 42.5 -232
t118 -185t179.5 -122t226 -44t227 45t182 124t121 185.5t44 229.5q0 82 -20 157t-57 140t-89 118t-115.5 90.5t-137.5 58t-155 20.5q-117 0 -220 -42.5t-180 -119.5t-121.5 -184.5t-44.5 -238.5zM1057 241q-81 77 -142 171.5t-102 183.5q-3 -1 -9 -1h-139v-327h-157v903h291
q73 0 133.5 -18.5t103.5 -53.5t66.5 -87t23.5 -119q0 -52 -15.5 -93.5t-41.5 -73t-59 -54.5t-68 -39q19 -37 44 -78t54.5 -82.5t64.5 -81.5t74 -75zM668 714h163q32 0 60.5 12.5t49.5 34.5t33.5 53t12.5 69q0 43 -15 72.5t-38.5 48.5t-53.5 27.5t-60 8.5h-152v-326z" />
    <glyph glyph-name="degree" unicode="&#xb0;" horiz-adv-x="793" 
d="M403 1304q-38 0 -70 -8t-55 -26.5t-35.5 -48.5t-12.5 -73q0 -86 45 -123.5t130 -37.5q46 0 77.5 12.5t50.5 33.5t27 49.5t8 61.5q0 88 -44.5 124t-120.5 36zM404 1412q69 0 123 -15.5t91.5 -48t57.5 -83t20 -121.5q0 -56 -15.5 -104t-50 -83t-89.5 -55.5t-134 -20.5
q-149 0 -227 64t-78 204q0 71 21 121t60.5 81.5t95.5 46t125 14.5z" />
    <glyph glyph-name="plusminus" unicode="&#xb1;" horiz-adv-x="968" 
d="M398 605h-272v178h272v268h191v-268h273v-178h-273v-275h-191v275zM126 4v174h736v-174h-736z" />
    <glyph glyph-name="acute" unicode="&#xb4;" horiz-adv-x="676" 
d="M158 1186l233 301l158 -103l-290 -268z" />
    <glyph glyph-name="paragraph" unicode="&#xb6;" horiz-adv-x="1344" 
d="M559 -268v859h-76q-109 0 -187.5 29t-129 82t-74.5 126.5t-24 163.5q0 77 21 149.5t69 128.5t125 90t190 34h309v-1662h-223zM952 -268v1662h221v-1662h-221z" />
    <glyph glyph-name="cedilla" unicode="&#xb8;" horiz-adv-x="670" 
d="M82 -302q33 -9 60 -12t56 -3q45 0 71 18t26 54q0 44 -29.5 59t-86.5 15q-17 0 -38 -1t-41 -3l64 165h157l-35 -83q35 -3 64 -14t50 -31t32.5 -49t11.5 -69q0 -91 -57.5 -135t-161.5 -44q-52 0 -94 8t-80 22z" />
    <glyph glyph-name="guillemotright" unicode="&#xbb;" horiz-adv-x="1200" 
d="M584 859l161 106l330 -435l-330 -442l-161 106l264 335zM108 859l161 106l331 -435l-331 -442l-161 106l264 335z" />
    <glyph glyph-name="questiondown" unicode="&#xbf;" horiz-adv-x="891" 
d="M837 -96q-31 -19 -71.5 -36t-84.5 -30t-90 -21t-88 -8q-118 0 -196.5 26t-126.5 70.5t-68.5 103.5t-21.5 124q-1 75 14.5 129.5t43.5 96.5t65.5 76t80.5 68q46 37 77 74.5t50 83.5t26 105t5 140h180q6 -69 7 -135.5t-13 -129t-49 -120t-101 -109.5l-69.5 -56.5t-53.5 -53
t-34 -60t-12 -76.5q0 -86 58 -129t167 -43q60 0 123 16.5t137 46.5zM543 1052q-111 0 -111 95q0 42 25.5 67.5t83.5 25.5q114 0 114 -95q0 -48 -29 -70.5t-83 -22.5z" />
    <glyph glyph-name="AE" unicode="&#xc6;" horiz-adv-x="1864" 
d="M914 0v360h-526l-46 -122l-37.5 -103.5l-28 -81t-15.5 -53.5h-237q13 53 37.5 129.5t59 172.5t80 210.5l101.5 244.5q45 105 92 200.5t91.5 177.5t84.5 147.5l70 111.5h1117l-1 -185h-627v-412h536v-176h-536v-436h646v-185h-861zM457 534h457v674l-131 -1l-46 -85.5
l-68.5 -129.5l-83 -165.5t-88.5 -193.5z" />
    <glyph glyph-name="Eth" unicode="&#xd0;" horiz-adv-x="1345" 
d="M536 619h-551v148h551v-148zM172 0v1394h449q83 0 164 -15t153.5 -48t134.5 -85.5t106.5 -127.5t70 -173.5t25.5 -224.5q0 -195 -50 -332t-137 -223t-203.5 -125.5t-248.5 -39.5h-464zM394 185h238q91 0 169 32t135 97.5t89.5 164t32.5 231.5q0 129 -32 223t-89 155.5
t-136 91t-173 29.5h-234v-1024z" />
    <glyph glyph-name="multiply" unicode="&#xd7;" horiz-adv-x="961" 
d="M359 591l-194 190l135 130l192 -189l193 189l135 -131l-194 -189l195 -190l-135 -130l-194 189l-193 -189l-134 130z" />
    <glyph glyph-name="Thorn" unicode="&#xde;" horiz-adv-x="1222" 
d="M389 1394v-219h253q120 0 214.5 -28t159 -83.5t98.5 -139t34 -195.5q0 -126 -40 -216t-109.5 -147.5t-164 -85t-203.5 -27.5h-242v-253h-223v1394h223zM389 427h240q63 0 118.5 15t96 49t64 88.5t23.5 132.5q0 88 -27 143.5t-72 86.5t-104 42.5t-123 11.5h-216v-569z" />
    <glyph glyph-name="germandbls" unicode="&#xdf;" horiz-adv-x="1267" 
d="M142 0v1269q69 76 176 120t249 44q97 0 170 -26.5t121.5 -69.5t73 -96.5t24.5 -107.5q0 -51 -7 -87.5t-23 -65.5t-40.5 -54.5t-58.5 -54.5q-43 -35 -71 -64.5t-28 -66.5q0 -19 11 -34.5t33 -31.5t55 -34l78 -42q48 -26 89.5 -53t73 -62.5t49.5 -81t18 -108.5
q0 -70 -25 -127t-72 -98t-115.5 -63.5t-156.5 -22.5q-95 0 -184.5 23t-168.5 58l57 146l60.5 -23.5t64.5 -20.5t72.5 -14.5t82.5 -5.5q34 0 65.5 10t56.5 29t40 46t15 62t-11.5 58.5t-34 42.5t-56 36.5l-78.5 40.5q-54 26 -97 51t-73 54t-45.5 64.5t-15.5 81.5q0 39 8 68.5
t24.5 55.5t43 51t62.5 54l39 32t31 32t20.5 37.5t7.5 47.5q0 34 -15 61.5t-41.5 46.5t-63 29.5t-78.5 10.5q-60 0 -106.5 -15t-93.5 -51v-1181h-212z" />
    <glyph glyph-name="ae" unicode="&#xe6;" horiz-adv-x="1768" 
d="M84 502q0 132 38.5 232t107 167t163.5 101t208 34q55 0 107 -7t99.5 -19t90 -27.5t78.5 -31.5q118 85 291 85q88 0 162.5 -26t129 -71t85.5 -106t31 -131q0 -58 -16.5 -110.5t-56.5 -92.5t-107 -63.5t-167 -23.5h-329q19 -124 94.5 -191.5t225.5 -67.5q72 0 137 23
t119 52l64 -148q-82 -47 -167 -72.5t-191 -25.5q-173 0 -288 71v-53h-183l-26 99q-29 -22 -60 -43t-67 -37.5t-79.5 -26.5t-97.5 -10q-87 0 -159.5 32.5t-125 97t-82 162t-29.5 228.5zM291 508q0 -91 19 -157.5t52.5 -109.5t80 -63.5t101.5 -20.5q71 0 135 25t104 62v580
q-9 4 -27 10t-43 12t-55 10t-63 4q-68 0 -123.5 -23t-96 -67.5t-62.5 -110t-22 -151.5zM1259 861q-58 0 -103.5 -21.5t-78.5 -59t-53 -88t-28 -108.5h298q40 0 72.5 3.5t55 15t34.5 32t12 53.5q0 46 -19.5 79t-50 54t-67.5 30.5t-72 9.5z" />
    <glyph glyph-name="eth" unicode="&#xf0;" horiz-adv-x="1119" 
d="M407 1151l105 109q-44 22 -89 40t-93 33l56 147q68 -18 129.5 -41.5t117.5 -52.5l116 120l128 -105l-104 -108q124 -103 193 -259.5t69 -381.5q0 -164 -26.5 -289t-84.5 -209.5t-151 -128t-226 -43.5q-114 0 -201.5 34.5t-147.5 97.5t-91 150.5t-31 193.5q0 111 35 199.5
t94 150t137.5 94t165.5 32.5q94 0 173.5 -20.5t142.5 -54.5q-16 101 -61 176.5t-111 132.5l-122 -126zM283 453q0 -67 18 -123t52.5 -96t84 -63t112.5 -24q93 -1 149.5 36.5t85.5 109t37.5 173.5t5.5 229q-39 20 -72 34.5t-65 23.5t-64.5 13.5t-69.5 4.5q-61 0 -111.5 -23.5
t-86.5 -66t-56 -101t-20 -127.5z" />
    <glyph glyph-name="divide" unicode="&#xf7;" horiz-adv-x="961" 
d="M126 490v175h736v-175h-736zM496 367q111 0 111 -94q0 -42 -25.5 -67.5t-83.5 -25.5q-114 0 -114 95q0 48 29 70t83 22zM496 965q111 0 111 -95q0 -42 -25.5 -67t-83.5 -25q-114 0 -114 94q0 48 29 70.5t83 22.5z" />
    <glyph glyph-name="thorn" unicode="&#xfe;" horiz-adv-x="1128" 
d="M358 1418v-415q51 14 104 23.5t104 9.5q108 0 197.5 -29t154.5 -91.5t101 -161.5t36 -239q0 -103 -24.5 -199t-78.5 -170.5t-140.5 -119t-210.5 -44.5q-47 0 -84.5 5t-67 12.5t-52 16.5t-39.5 17v-121l-212 3v1503h212zM358 222q23 -14 47 -25.5t50 -20.5t56.5 -14
t67.5 -5q76 0 127.5 33.5t83 86.5t45 117.5t13.5 126.5q0 88 -21.5 152.5t-59.5 106t-90.5 61.5t-113.5 20q-54 0 -107 -17t-98 -37v-585zM358 -88v-358h-212v361z" />
    <glyph glyph-name="OE" unicode="&#x152;" horiz-adv-x="1816" 
d="M925 0q-44 -9 -90.5 -14t-95.5 -4q-142 0 -262 40t-207 125.5t-136 220.5t-48 327q1 190 49.5 326t135 222.5t206 127t262.5 41.5q94 0 177 -18h774l-2 -185h-627v-412h536v-176h-536v-436h646v-185h-782zM739 166q57 0 107 12v1032q-23 8 -50.5 12.5t-56.5 4.5
q-111 0 -192 -38t-135 -107.5t-81 -168t-28 -218.5q0 -114 25.5 -211t78.5 -167.5t135.5 -110.5t196.5 -40z" />
    </font>
</defs>
</svg>
